Today is a free download without charge Download

Лекарство для бабушки / Серии: 1-4 из 4 (Сергей Алёшечкин) [2011, Мелодрама, HDTVRip 720p]

Reply to topic
 
Author
Message

Omen ®

Longevity: 9 years 1 month

Posts: 181086

Торрент-статистика

Post 13-Mar-2013 21:52

[Quote]

Лекарство для бабушки
Год выпуска: 2011
Производство: Кинокомпания УПС
Жанр: Мелодрама
Продолжительность: ~00:45:00
Режиссёр: Сергей Алёшечкин
В ролях: Аглая Шиловская, Константин Крюков, Екатерина Васильева, Виталий Салий и другие
Описание: Соня - скромная и незаметная студентка филологического факультета. Неожиданно для всех девушка покоряет сердце завидного жениха, преуспевающего бизнесмена Жени Писарева.

Качество: HDTVRip 720p
Формат: MKV
Видео кодек: H.264
Аудио кодек: MPEG Audio
Видео: x264, 1280 х 720 (16:9), 25,000 кадр/сек, ~ 2116 Кбит/сек
Аудио: MPEG Audio 48000Hz stereo 192 Кбит/сек
Сторонней рекламы нет!

MediaInfo

ОбщееУникальный идентификатор : 217033929652340684718100683920199332738 (0xA34736E358F5E261948B22B1340B3382)Полное имя : G:\ФИЛЬМЫ\Лекарство для бабушки HDTVRip 720 p\Лекарство для бабушки 01_серия_HDTVRip_720p_by_Серый1779.mkvФормат : MatroskaВерсия формата : Version 2Размер файла : 715 МбайтПродолжительность : 43 м.Общий поток : 2311 Кбит/секДата кодирования : UTC 2013-03-06 23:00:22Программа кодирования : mkvmerge v4.9.1 ('Ich will') built on Sep 21 2011 17:48:11Библиотека кодирования : libebml v1.2.1 + libmatroska v1.2.0
ВидеоИдентификатор : 1Формат : AVCФормат/Информация : Advanced Video CodecПрофиль формата : [email protected]Параметр CABAC формата : ДаПараметр ReFrames формата : 10 кадровИдентификатор кодека : V_MPEG4/ISO/AVCПродолжительность : 43 м.Битрейт : 2073 Кбит/секШирина : 1280 пикселейВысота : 720 пикселейСоотношение сторон : 16:9Режим частоты кадров : ПостоянныйЧастота кадров : 25,000 кадров/секЦветовое пространство : YUVСубдискретизация насыщенности : 4:2:0Битовая глубина : 8 битТип развёртки : ПрогрессивнаяБит/(Пиксели*Кадры) : 0.090Размер потока : 642 Мбайт (90%)Библиотека кодирования : x264 core 118 r2085 8a62835Настройки программы : cabac=1 / ref=10 / deblock=1:-2:-2 / analyse=0x3:0x133 / me=umh / subme=9 / psy=1 / psy_rd=1.00:0.15 / mixed_ref=1 / me_range=32 / chroma_me=1 / trellis=2 / 8x8dct=1 / cqm=0 / deadzone=21,11 / fast_pskip=0 / chroma_qp_offset=-3 / threads=3 / sliced_threads=0 / nr=0 / decimate=1 / interlaced=0 / bluray_compat=0 / constrained_intra=0 / bframes=9 / b_pyramid=2 / b_adapt=2 / b_bias=0 / direct=1 / weightb=1 / open_gop=0 / weightp=2 / keyint=250 / keyint_min=25 / scenecut=40 / intra_refresh=0 / rc=crf / mbtree=0 / crf=20.0 / qcomp=0.60 / qpmin=0 / qpmax=69 / qpstep=4 / ip_ratio=1.40 / pb_ratio=1.30 / aq=2:0.70Default : ДаForced : НетОсновные цвета : BT.601 PALХарактеристики трансфера : BT.470 System B, BT.470 System GКоэффициенты матрицы : BT.601
АудиоИдентификатор : 2Формат : MPEG AudioВерсия формата : Version 1Профиль формата : Layer 2Идентификатор кодека : A_MPEG/L2Идентификатор кодека/Подсказка : MP2Продолжительность : 43 м.Вид битрейта : ПостоянныйБитрейт : 192 Кбит/секКаналы : 2 каналаЧастота : 48,0 КГцМетод сжатия : С потерямиРазмер потока : 59,4 Мбайт (8%)Default : ДаForced : Нет

h264 log

x264 [info]: frame I:465 Avg QP:17.51 size: 72430x264 [info]: frame P:14370 Avg QP:19.10 size: 23885x264 [info]: frame B:50079 Avg QP:21.39 size: 6193x264 [info]: consecutive B-frames: 1.5% 1.3% 6.2% 33.4% 22.2% 32.3% 2.1% 0.8% 0.1% 0.0%x264 [info]: mb I I16..4: 10.2% 78.8% 11.1%x264 [info]: mb P I16..4: 2.4% 8.3% 0.9% P16..4: 62.1% 16.2% 3.7% 0.3% 0.1% skip: 6.1%x264 [info]: mb B I16..4: 0.2% 0.5% 0.1% B16..8: 36.2% 4.8% 1.0% direct: 3.6% skip:53.6% L0:39.7% L1:50.2% BI:10.1%x264 [info]: 8x8 transform intra:73.0% inter:71.2%x264 [info]: coded y,uvDC,uvAC intra: 71.6% 76.7% 44.6% inter: 14.4% 18.8% 1.1%x264 [info]: i16 v,h,dc,p: 24% 15% 8% 53%x264 [info]: i8 v,h,dc,ddl,ddr,vr,hd,vl,hu: 16% 11% 6% 8% 12% 13% 12% 12% 12%x264 [info]: i4 v,h,dc,ddl,ddr,vr,hd,vl,hu: 17% 12% 3% 7% 14% 15% 12% 10% 10%x264 [info]: i8c dc,h,v,p: 35% 25% 23% 17%x264 [info]: Weighted P-Frames: Y:2.0% UV:1.1%x264 [info]: ref P L0: 42.8% 10.0% 20.5% 6.0% 6.1% 4.0% 4.2% 2.0% 2.2% 2.0% 0.2% 0.0%x264 [info]: ref B L0: 81.4% 9.4% 3.5% 1.8% 1.2% 1.1% 0.9% 0.4% 0.3%x264 [info]: ref B L1: 95.3% 4.7%x264 [info]: kb/s:2116.78
x264 [total]: encoded 64914 frames, 2.50 fps, 2116.78 kb/s
Отдельное спасибо mydimka за предоставление исходника.

Внимание ! Раздача ведётся путём добавления новых серий

Внимание! Раздача ведётся путём добавления новых серий; при каждом добавлении создётся новый торрент. Чтобы начать докачку новой серии, пользователям необходимо сделать следующее:
(1) остановить скачивание,
(2) удалить старый торрент у себя из клиента (старые серии удалять не надо),
(3) скачать новый торрент и запустить его у себя в клиенте вместо старого, при этом указать клиенту путь в старую папку куда и должно происходить скачивание новых серий.
Ваш клиент при этом должен произвести хеширование (проверку) старой папки (если не производит сам - помогите ему сделать это), и будет докачивать только те серии которых у вас ещё нет. Старые серии при этом не удаляются, а продолжают раздаваться!
Eсли вы уже удалили старые серии, то предотвратить повторную закачку старых серий можно, отжав галочку в соответсвующих местах при запуске нового торрента. По возможности, желательно не удалять старые серии как можно дольше чтобы релизёр не столько продолжал раздавать старые серии, а смог сконцентрироваться на новых.
ВНИМАНИЕ! ТОРРЕНТ ПЕРЕЗАЛИТ! ДОБАВЛЕНА 4-ая СЕРИИ!

Скриншоты

Other forum [Profile] [PM]
Display posts from previous:    
Reply to topic

The time now is: Today 00:14

All times are GMT + 3 Hours



You cannot post new topics in this forum
You cannot reply to topics in this forum
You cannot edit your posts in this forum
You cannot delete your posts in this forum
You cannot vote in polls in this forum
You cannot attach files in this forum
You cannot download files in this forum