Today is a free download without charge Download

Доспехи Бога 3: Миссия Зодиак / Chinese Zodiac (Джеки Чан / Jackie Chan) [2012, Гонконг, Китай, боевик, комедия, приключения, BDRip 720p] Dub + Original (Chi) + Subs (Eng, Rus)

Reply to topic
 
Author
Message

Omen ®

Longevity: 8 years 5 months

Posts: 181087

Торрент-статистика

Post 13-Mar-2013 21:52

[Quote]

Доспехи Бога 3: Миссия Зодиак
Chinese Zodiac
-«Охота за сокровищами началась»- Год выпуска: 2012
Страна: Гонконг, Китай / Emperor Classic Films, Emperor Dragon Movies, Emperor Motion Pictures, Jackie & JJ Productions, Jackie Chan Emperor Movies-Жанры: боевик, комедия, приключения
Продолжительность: 02:02:56-Перевод: Профессиональный (дублированный) [Лицензия, Blu-ray]
Cубтитры: русские, английские
Навигация по главам: есть-Режиссер: Джеки Чан / Jackie Chan-В ролях: Джеки Чан (Asian Hawk), Квон Сан У (Simon), Ляо Фань (David), Синтхун Яо (Coco), Чжан Ланьсинь, Лаура Вейссбеккер (Katherine), Оливер Платт, Кэйтлин Дешель, Эмили Гуйо (French Reporter), Кенни Джи (Airplane Pilot), Рэни Бимак (Indian Reporter), Алаа Омузун (Vulture)-Описание: Главный герой истории - работающий по всему миру охотник за сокровищами Джей Си по кличке Ястреб. Известный антиквар предлагает ему отыскать шесть редких статуэток в виде голов животных. В свое время эти бронзовые скульптуры входили в набор из 12-ти предметов, олицетворявших знаки зодиака. Фигурки украшали фонтан легендарного Летнего дворца на окраине Пекина. В 1860 году величественное сооружение было разграблено и разрушено англо-французскими войсками на исходе Второй опиумной войны, а статуэтки безвозвратно утеряны.-
Релиз: -Качество: BDRip (EbP)
Формат: MKV
Видео кодек: AVC
Аудио кодек: DTS
Видео: 1280x536 at 24.000 fps (True24p), [email protected], crf, ~8471 kbps avg
Аудио 1: Russian / DTS Audio / 1536 kbps / 5.1 / 48 kHz
Аудио 2: Chinese / DTS Audio / 1536 kbps / 5.1 / 48 kHz

Знаете ли вы, что...

• Съемки главной сцены драки в фильме обошлись в 70 миллионов юаней (на 2012 год это более чем 10 млн. долларов США).
• Фильм частично снят по мотивам сериала Акиры Ториямы «Драконий жемчуг». Сам Торияма отметил Джеки Чана как человека, сильно повлиявшего на его работу.
• Сцена с перечислением женских имен была снята за пару дублей без использования карточек с текстовыми подсказками. Марк Уолберг сам составил список этих имен.
• В период с 18 апреля по 2 мая 2012 года некоторые сцены снимались в Аэродиуме (вертикальной аэродинамической трубе) в Елгаве (Латвия).
• Четырехминутная трюковая сцена была снята на горе Ясур (вулкан на острове Танна в Вануату).
• Джеки Чан установил рекорд Гиннесса в фильме, получив его за «Самое большое количество упоминаний в титрах». Чан работал на 15 основных должностях, которые были задействованы во время создания фильма, в том числе: режиссер, продюсер, актер, хореограф по сценам драк и композитор, тем самым он побил предыдущий рекорд — 11 упоминаний в титрах, который удерживал Роберт Родригес.

Подробные тех. данные

General
Unique ID : 226862925148631814789026506506793719827 (0xAAAC35C7E6C0EE78B4CFAE8708A11813)
Complete name : D:\Фильмы\Chinese.Zodiac.(Armour.of.God.III).2012.720p.BluRay.DTS.Rus.Chi.HDCLUB.mkv
Format : Matroska
Format version : Version 2
File size : 10.0 GiB
Duration : 2h 2mn
Overall bit rate : 11.7 Mbps
Movie name : Chinese Zodiac (Armour of God III) (2012) - Release for HDCLUB
Encoded date : UTC 2013-03-12 20:25:02
Writing application : mkvmerge v2.9.5 ('Tu es le seul') built on Jun 7 2009 11:07:07
Writing library : libebml v0.7.7 + libmatroska v0.8.1
Video
ID : 1
Format : AVC
Format/Info : Advanced Video Codec
Format profile : [email protected]
Format settings, CABAC : Yes
Format settings, ReFrames : 12 frames
Codec ID : V_MPEG4/ISO/AVC
Duration : 2h 2mn
Bit rate : 8 425 Kbps
Width : 1 280 pixels
Height : 536 pixels
Display aspect ratio : 2.40:1
Frame rate mode : Constant
Frame rate : 24.000 fps
Color space : YUV
Chroma subsampling : 4:2:0
Bit depth : 8 bits
Scan type : Progressive
Bits/(Pixel*Frame) : 0.512
Stream size : 7.23 GiB (72%)
Title : Release for HDCLUB
Writing library : x264 core 129 r2245 bc13772
Encoding settings : cabac=1 / ref=12 / deblock=1:-3:-3 / analyse=0x3:0x113 / me=tesa / subme=9 / psy=1 / psy_rd=1.05:0.00 / mixed_ref=1 / me_range=16 / chroma_me=1 / trellis=2 / 8x8dct=1 / cqm=0 / deadzone=21,11 / fast_pskip=0 / chroma_qp_offset=-2 / threads=12 / lookahead_threads=2 / sliced_threads=0 / nr=0 / decimate=0 / interlaced=0 / bluray_compat=0 / constrained_intra=0 / bframes=7 / b_pyramid=2 / b_adapt=2 / b_bias=0 / direct=3 / weightb=1 / open_gop=0 / weightp=2 / keyint=250 / keyint_min=24 / scenecut=40 / intra_refresh=0 / rc=crf / mbtree=0 / crf=16.0 / qcomp=0.70 / qpmin=0 / qpmax=69 / qpstep=4 / ip_ratio=1.40 / pb_ratio=1.30 / aq=1:0.65
Language : English
Default : Yes
Forced : No
Matrix coefficients : BT.709
Audio #1
ID : 2
Format : DTS
Format/Info : Digital Theater Systems
Mode : 16
Format settings, Endianness : Big
Codec ID : A_DTS
Duration : 2h 2mn
Bit rate mode : Constant
Bit rate : 1 510 Kbps
Channel(s) : 6 channels
Channel positions : Front: L C R, Side: L R, LFE
Sampling rate : 48.0 KHz
Bit depth : 16 bits
Compression mode : Lossy
Stream size : 1.30 GiB (13%)
Title : DTS 5.1 1536 Kbps [Дубляж, Blu-ray]
Language : Russian
Default : Yes
Forced : No
Audio #2
ID : 3
Format : DTS
Format/Info : Digital Theater Systems
Mode : 16
Format settings, Endianness : Big
Codec ID : A_DTS
Duration : 2h 2mn
Bit rate mode : Constant
Bit rate : 1 509 Kbps
Channel(s) : 6 channels
Channel positions : Front: L C R, Side: L R, LFE
Sampling rate : 48.0 KHz
Bit depth : 24 bits
Compression mode : Lossy
Stream size : 1.30 GiB (13%)
Title : DTS 5.1 1536 Kbps [Оригинал]
Language : Chinese
Default : No
Forced : No
Text #1
ID : 4
Format : UTF-8
Codec ID : S_TEXT/UTF8
Codec ID/Info : UTF-8 Plain Text
Language : Russian
Default : No
Forced : No
Text #2
ID : 5
Format : UTF-8
Codec ID : S_TEXT/UTF8
Codec ID/Info : UTF-8 Plain Text
Language : English
Default : No
Forced : No
Menu
00:00:00.000 : en:00:00:00.000
00:11:23.208 : en:00:11:23.208
00:18:11.542 : en:00:18:11.542
00:31:52.583 : en:00:31:52.583
00:41:46.000 : en:00:41:46.000
00:50:53.958 : en:00:50:53.958
01:04:57.083 : en:01:04:57.083
01:10:09.292 : en:01:10:09.292
01:20:00.292 : en:01:20:00.292
01:27:49.500 : en:01:27:49.500
01:41:28.667 : en:01:41:28.667
01:53:58.000 : en:01:53:58.000

Source | EbP




Other forum [Profile] [PM]
Display posts from previous:    
Reply to topic

The time now is: Today 02:43

All times are GMT + 3 Hours



You cannot post new topics in this forum
You cannot reply to topics in this forum
You cannot edit your posts in this forum
You cannot delete your posts in this forum
You cannot vote in polls in this forum
You cannot attach files in this forum
You cannot download files in this forum