Today is a free download without charge Download

Танец мертвецов / Адская вечеринка / Dance of the Dead (Грегг Бишоп / Gregg Bishop) [2008, США, ужасы, комедия, приключения, BDRemux 1080p] DVO + Original + Sub (Eng / Ger)

Reply to topic
 
Author
Message

Omen ®

Longevity: 8 years 5 months

Posts: 181087

Торрент-статистика

Post 13-Mar-2013 17:47

[Quote]

Танец мертвецов / Адская вечеринка / Dance of the Dead
«Эта их ночь, чтобы убить всё живое!»
- Страна: Великобритания
Студии: Bishop Studios LLC, Bleiberg Entertainment, Compound B
Жанр: ужасы, комедия, приключения
Год выпуска: 2008
Продолжительность: 01:27:09
Перевод: Любительский (двухголосый, закадровый)
Cубтитры: английские, немецкие
Оригинальная аудиодорожка: английский-Режиссер: Грегг Бишоп / Gregg Bishop
В ролях: Джаред Кусниц, Грейсон Чадвик, Чандлер Дэрби, Карисса Капобьянко, Рэнди Макдауэлл, Майкл Маммолити, Марк Линч, Блэр Редфорд, Хантер Пирс, Лукас Тилл, Марк Оливер, Джастин Велборн-Описание: Ученики средней школы заняты подготовкой к предстоящему вечеру танцев. Из всей этой типичной предпраздничной суматохи выбиваются несколько людей, совсем не похожих друг на друга, кроме одного — они неудачники, лузеры, которые не попали на этот праздник. Но именно им предстоит объединиться и попытаться спасти остальных людей от голодных зомби, разбуженных атомной электростанцией и так некстати решивших вторгнуться на праздник, где их никто не ждал.
- -Тип релиза: BDRemux 1080p
Контейнер: MKV
Видео: VC-1 Video / 19.5 Mbps / 1080p / 23.976 fps / 16:9 / Advanced Profile 3
Аудио #1: Russian: 48 kHz, AC3, 3/2 (L,C,R,l,r) + LFE ch, ~448.00 kbps avg - [DVO]
Аудио #2: English: DTS-HD High-Res 5.1 / (48 kHz / 3018 kbps / 16-bit) (DTS Core: 5.1 / 48 kHz / 1509 kbps / 16-bit) - [Original]
Формат субтитров: softsub (SRT)
Чаптеры: Сохранены оригинальные чаптеры с Blu-Ray
-
-

Скриншоты



-

MediaInfo

Код:
Format                                   : Matroska
Format version                           : Version 2
File size                                : 14.3 GiB
Duration                                 : 1h 27mn
Overall bit rate                         : 23.4 Mbps
Movie name                               : Arifis for GORESEWAGE
Encoded date                             : UTC 2013-03-13 12:44:04
Writing application                      : mkvmerge v5.2.1 ('A Far Off Place') built on Jan  2 2012 23:21:10
Writing library                          : libebml v1.2.3 + libmatroska v1.3.0
Video
ID                                       : 1
Format                                   : VC-1
Format profile                           : [email protected]
Codec ID                                 : V_MS/VFW/FOURCC / WVC1
Codec ID/Hint                            : Microsoft
Duration                                 : 1h 27mn
Bit rate                                 : 19.5 Mbps
Width                                    : 1 920 pixels
Height                                   : 1 080 pixels
Display aspect ratio                     : 16:9
Frame rate mode                          : Constant
Frame rate                               : 23.976 fps
Chroma subsampling                       : 4:2:0
Bit depth                                : 8 bits
Scan type                                : Progressive
Compression mode                         : Lossy
Bits/(Pixel*Frame)                       : 0.393
Stream size                              : 11.9 GiB (83%)
Default                                  : Yes
Forced                                   : No
Audio #1
ID                                       : 2
Format                                   : AC-3
Format/Info                              : Audio Coding 3
Mode extension                           : CM (complete main)
Format settings, Endianness              : Big
Codec ID                                 : A_AC3
Duration                                 : 1h 27mn
Bit rate mode                            : Constant
Bit rate                                 : 448 Kbps
Channel(s)                               : 6 channels
Channel positions                        : Front: L C R, Side: L R, LFE
Sampling rate                            : 48.0 KHz
Bit depth                                : 16 bits
Compression mode                         : Lossy
Stream size                              : 279 MiB (2%)
Title                                    : AC3 5.1 @ 448 kbps - DVO
Language                                 : Russian
Default                                  : Yes
Forced                                   : No
Audio #2
ID                                       : 3
Format                                   : DTS
Format/Info                              : Digital Theater Systems
Format profile                           : HRA / Core
Mode                                     : 16
Format settings, Endianness              : Big
Codec ID                                 : A_DTS
Duration                                 : 1h 27mn
Bit rate mode                            : Constant
Bit rate                                 : 3 018 Kbps / 1 509 Kbps
Channel(s)                               : 6 channels
Channel positions                        : Front: L C R, Side: L R, LFE
Sampling rate                            : 48.0 KHz
Bit depth                                : 16 bits
Compression mode                         : Lossy
Stream size                              : 1.84 GiB (13%)
Title                                    : DTS-HD HR 5.1 Original @ 3018 kbps
Language                                 : English
Default                                  : No
Forced                                   : No
Text #1
ID                                       : 4
Format                                   : UTF-8
Codec ID                                 : S_TEXT/UTF8
Codec ID/Info                            : UTF-8 Plain Text
Title                                    : Full Eng
Language                                 : English
Default                                  : No
Forced                                   : No
Text #2
ID                                       : 5
Format                                   : UTF-8
Codec ID                                 : S_TEXT/UTF8
Codec ID/Info                            : UTF-8 Plain Text
Title                                    : Full Ger
Language                                 : German
Default                                  : No
Forced                                   : No
Menu
00:00:00.000                             : :Chapter 01
00:08:51.072                             : :Chapter 02
00:15:58.040                             : :Chapter 03
00:23:45.090                             : :Chapter 04
00:32:17.727                             : :Chapter 05
00:43:10.796                             : :Chapter 06
00:50:46.168                             : :Chapter 07
00:58:40.099                             : :Chapter 08
01:06:10.257                             : :Chapter 09
01:13:19.603                             : :Chapter 10
01:16:43.807                             : :Chapter 11
01:18:53.019                             : :Chapter 12
-
Other forum [Profile] [PM]

Dracula

Longevity: 7 years 6 months

Posts: 11225

Торрент-статистика

Post 30-Mar-2013 09:12 (after 16 days)

Топик был перенесен из форума Зарубежное кино (HD Video) в форум Зарубежное кино


Delia
 
Display posts from previous:    
Reply to topic

The time now is: Today 11:24

All times are GMT + 3 Hours



You cannot post new topics in this forum
You cannot reply to topics in this forum
You cannot edit your posts in this forum
You cannot delete your posts in this forum
You cannot vote in polls in this forum
You cannot attach files in this forum
You cannot download files in this forum