Today is a free download without charge Download

Внутри моей памяти / The I Inside (Роланд Зузо Рихтер / Roland Suso Richter) [2004, Великобритания, США, фантастика, триллер, детектив, HDTVRip 720p] 2xMVO + Subs (Rus, Eng) + Original Eng

Reply to topic
 
Author
Message

Omen ®

Longevity: 8 years 5 months

Posts: 181087

Торрент-статистика

Post 13-Mar-2013 13:39

[Quote]

Внутри моей памяти / The I Inside
Год выпуска: 2004
Страна: Великобритания, США
Жанр: фантастика, триллер, детектив
Продолжительность: 01:30:50
Перевод1: Профессиональный (многоголосый закадровый) R5
Перевод2: Профессиональный (многоголосый закадровый) R1
Субтитры: Английские
Оригинальная аудиодорожка: Английская
Режиссер: Роланд Зузо Рихтер / Roland Suso Richter
В ролях: Райан Филипп, Сара Полли, Пайпер Перабо, Роберт Шон Леонард, Питер Иган, Стивен Лэнг, Рэки Айола, Стивен Грэм, Стивен Ри, Магдалена Менвилл
Описание: Когда Саймон пробуждается в больнице, он не помнит событий последних двух лет: ни собственной свадьбы, ни автокатастрофы, ни гибели брата, в которой обвиняют его. Но вскоре он обнаруживает, что может вернуться назад в своей памяти! А значит должен попытаться изменить будущее!- -За ремастеринг и синхронизацию русских дорожек большое спасибо Andrew Placid.-Качество: HDTVRip 720p jTV (HDBits)
Формат: MKV
Видео кодек: x264
Аудио кодек: AC3
Видео: 1280x544, 3377 kbps, 23.976 fps
Аудио1: Русский AC3 5.1, 48 KHz, 448 kbps
Аудио2: Русский AC3 5.1, 48 KHz, 448 kbps
Аудио3: Английский AC3 5.1, 48 KHz, 448 kbps
Субтитры: Английские, английские (для плохослышащих)

Скриншоты


MediaInfo

General
Unique ID : 181638197643384560396351004316019062193 (0x88A63E904032BF9FB2DEAF3A37A1F5B1)
Complete name : The.I.Inside.2004.720p.HDTV.2xRus.Eng.HDCLUB.mkv
Format : Matroska
Format version : Version 4 / Version 2
File size : 3.05 GiB
Duration : 1h 30mn
Overall bit rate : 4 812 Kbps
Movie name : The I Inside (2004) - Release for HDCLUB
Encoded date : UTC 2013-03-13 05:50:20
Writing application : mkvmerge v6.1.0 ('Old Devil') built on Mar 4 2013 09:10:42
Writing library : libebml v1.3.0 + libmatroska v1.4.0
Video
ID : 1
Format : AVC
Format/Info : Advanced Video Codec
Format profile : [email protected]
Format settings, CABAC : Yes
Format settings, ReFrames : 6 frames
Muxing mode : Container [email protected]
Codec ID : V_MPEG4/ISO/AVC
Duration : 1h 30mn
Bit rate : 3 373 Kbps
Width : 1 280 pixels
Height : 544 pixels
Display aspect ratio : 2.35:1
Frame rate mode : Constant
Frame rate : 23.976 fps
Color space : YUV
Chroma subsampling : 4:2:0
Bit depth : 8 bits
Scan type : Progressive
Bits/(Pixel*Frame) : 0.202
Stream size : 2.14 GiB (70%)
Title : 720p, x264, crf 16, 3377 kbps, 23.976 fps, High Profile 4.1, jTV (HDBits)
Writing library : x264 core 116 r2057 0ba8a9c
Encoding settings : cabac=1 / ref=6 / deblock=1:-1:-1 / analyse=0x3:0x113 / me=tesa / subme=10 / psy=1 / psy_rd=1.00:0.22 / mixed_ref=1 / me_range=32 / chroma_me=1 / trellis=2 / 8x8dct=1 / cqm=0 / deadzone=21,11 / fast_pskip=0 / chroma_qp_offset=-3 / threads=12 / sliced_threads=0 / nr=0 / decimate=1 / interlaced=0 / bluray_compat=0 / constrained_intra=0 / bframes=3 / b_pyramid=2 / b_adapt=1 / b_bias=0 / direct=3 / weightb=1 / open_gop=0 / weightp=2 / keyint=250 / keyint_min=25 / scenecut=40 / intra_refresh=0 / rc_lookahead=40 / rc=crf / mbtree=1 / crf=16.0 / qcomp=0.60 / qpmin=0 / qpmax=69 / qpstep=4 / ip_ratio=1.40 / aq=1:0.80
Language : English
Default : Yes
Forced : No
Audio #1
ID : 2
Format : AC-3
Format/Info : Audio Coding 3
Mode extension : CM (complete main)
Format settings, Endianness : Big
Codec ID : A_AC3
Duration : 1h 30mn
Bit rate mode : Constant
Bit rate : 448 Kbps
Channel(s) : 6 channels
Channel positions : Front: L C R, Side: L R, LFE
Sampling rate : 48.0 KHz
Bit depth : 16 bits
Compression mode : Lossy
Stream size : 291 MiB (9%)
Title : MVO R5 AC3 5.1 448 kbps
Language : Russian
Default : Yes
Forced : No
Audio #2
ID : 3
Format : AC-3
Format/Info : Audio Coding 3
Mode extension : CM (complete main)
Format settings, Endianness : Big
Codec ID : A_AC3
Duration : 1h 30mn
Bit rate mode : Constant
Bit rate : 448 Kbps
Channel(s) : 6 channels
Channel positions : Front: L C R, Side: L R, LFE
Sampling rate : 48.0 KHz
Bit depth : 16 bits
Compression mode : Lossy
Stream size : 291 MiB (9%)
Title : MVO R1 AC3 5.1 448 kbps
Language : Russian
Default : No
Forced : No
Audio #3
ID : 4
Format : AC-3
Format/Info : Audio Coding 3
Mode extension : CM (complete main)
Format settings, Endianness : Big
Codec ID : A_AC3
Duration : 1h 30mn
Bit rate mode : Constant
Bit rate : 448 Kbps
Channel(s) : 6 channels
Channel positions : Front: L C R, Side: L R, LFE
Sampling rate : 48.0 KHz
Bit depth : 16 bits
Compression mode : Lossy
Stream size : 291 MiB (9%)
Title : From R5 DVD AC3 5.1 448 kbps
Language : English
Default : No
Forced : No
Text #1
ID : 5
Format : UTF-8
Codec ID : S_TEXT/UTF8
Codec ID/Info : UTF-8 Plain Text
Language : English
Default : No
Forced : No
Text #2
ID : 6
Format : UTF-8
Codec ID : S_TEXT/UTF8
Codec ID/Info : UTF-8 Plain Text
Title : SDH
Language : English
Default : No
Forced : No
Other forum [Profile] [PM]
Display posts from previous:    
Reply to topic

The time now is: Today 19:40

All times are GMT + 3 Hours



You cannot post new topics in this forum
You cannot reply to topics in this forum
You cannot edit your posts in this forum
You cannot delete your posts in this forum
You cannot vote in polls in this forum
You cannot attach files in this forum
You cannot download files in this forum