Today is a free download without charge Download

Вячеслав Бутусов - 50! Юбилейный концерт (20.10.2011) [2011, Rock, HDTV 1080i]

Reply to topic
 
Author
Message

Omen ®

Longevity: 8 years 3 months

Posts: 181087

Торрент-статистика

Post 13-Mar-2013 13:39

[Quote]

Вячеслав Бутусов - 50! Юбилейный концерт (20.10.2011)
Жанр: Rock
Продолжительность: 01:33:50
Год выпуска: 2011
Описание: Творчество Вячеслава Бутусова всегда было востребовано. И в лихие годы перестройки, когда у целого поколения сменились жизненные ориентиры и приоритеты; и уже в нынешнем столетии, когда все узнали Бутусова как творца, способного быть тонким лириком и романтиком. Его главные песни не утратили свою злободневность и острую социальность и по сей день, поэтому так интересны самой активной и молодой аудитории. "Шар цвета хаки", "Хлоп-Хлоп", "Скованные одной цепью" - разве это не актуально в наши дни?... А фильм "БРАТ" Алексея Балабанова, музыка к которому полностью состоит из песен и саунд-треков Вячеслава? Фильм, ставший не просто культовым, а поистине народным. Его песни знают и поют миллионы. К праздничному выступлению Вячеслав Бутусов приготовил уникальную программу, в которую будут включены все шедевры непотопляемого "Наутилуса", а также лучшее из новейшей романтики "Ю-Питера". А самое главное – нас ждёт оригинальное звучание главных песен "Нау", как это было 20 лет назад. Вячеслав Бутусов: "В творчестве все должно быть исключительно по наитию и без каких-либо корыстных целей. Сколько раз я ни пытался внушить себе и другим, что сейчас сделаю нечто восхитительное, - ничего не получалось. Такие вещи происходят сами по себе, то есть свыше". Для многочисленных поклонников «НАУ» и «Ю-Питера» Вячеслав не просто поэт, композитор и музыкант. Он – Герой нашего времени, пример для подражания и один из исполинов русского рока, стоящий в одном ряду с В.Цоем, Ю.Шевчуком, Б.Гребенщиковым и К.Кинчевым (Кого ещё из первой волны рок-сообщества можно поставить рядом с ними?). Его творчество всегда было востребовано. И в лихие годы перестройки, когда у целого поколения сменились жизненные ориентиры и приоритеты; и уже в нынешнем столетии, когда все узнали Бутусова как творца, способного быть тонким лириком и романтиком. Его главные песни не утратили свою злободневность и острую социальность и по сей день, поэтому так интересны самой активной и молодой аудитории. «Шар цвета хаки», «Хлоп-Хлоп», «Скованные одной цепью» - разве это не актуально в наши дни?... А фильм «БРАТ» Алексея Балабанова, музыка к которому полностью состоит из песен и саунд-треков Вячеслава? Фильм, ставший не просто культовым, а поистине народным. Что говорить, его песни знают и поют миллионы. На юбилейном концерте ожидается много сюрпризов. В этот вечер на сцене Крокус Сити Холл чествовать юбиляра будут Юрий Шевчук, “Машина Времени”, Гарик Сукачев и группа “Неприкасаемые”, а также самые близкие друзья и соратники. К праздничному выступлению Вячеслав Бутусов приготовил уникальную программу, в которую будут включены все шедевры непотопляемого «НАУТИЛУСА», а также лучшее из новейшей романтики «Ю-Питера». А самое главное – нас ждёт оригинальное звучание ГЛАВНЫХ ПЕСЕН «НАУ», как это было 20 лет назад.
Треклист:
Бриллиантовые дороги
Взгляд с экрана
Титаник
Песня идущего домой
Девушка по городу
Прогулки по воде
Негорькая слеза
Казанова
Вселенская
Терновник
Скованные одной цепью
Крылья
Тутанхамон
Шар цвета хаки
Хлоп-Хлоп
Моя звезда
Дыхание
Прощальное письмо
Источник: собственный рип
Доп. информация: Релиз -

Рип чистый. Без посторонних надписей. Выкладывается как есть.
Качество: HDTV 1080i
Контейнер: TS
Видео кодек: AVC
Аудио кодек: AC3
Видео: 1920x1080 (16:9) 25.000 fps 7 838 Kbps, 0.151 bit/pixel
Аудио 1: MPEG Audio 48000Hz stereo 192 Кбит/сек
Аудио 2: AC3 384 Kbps, 2 channels

Скриншоты


Скринлист

MI

GeneralID : 1 (0x1)Complete name : N:\ВЫКЛАДКА\HDTV\Музыка\Вячеслав Бутусов - 50! Юбилейный концерт (20.10.2011) (2011, Rock, Концерт, HDTV) (MYDIMKA).tsFormat : MPEG-TSFile size : 5.80 GiBDuration : 1h 33mnOverall bit rate mode : VariableOverall bit rate : 8 841 Kbps
VideoID : 2931 (0xB73)Menu ID : 1 (0x1)Format : AVCFormat/Info : Advanced Video CodecFormat profile : [email protected] settings, CABAC : YesFormat settings, ReFrames : 3 framesFormat settings, GOP : M=3, N=30Codec ID : 27Duration : 1h 33mnBit rate : 7 822 KbpsWidth : 1 920 pixelsHeight : 1 080 pixelsDisplay aspect ratio : 16:9Frame rate : 25.000 fpsColor space : YUVChroma subsampling : 4:2:0Bit depth : 8 bitsScan type : MBAFFBits/(Pixel*Frame) : 0.151Stream size : 5.13 GiB (88%)
Audio #1ID : 2932 (0xB74)Menu ID : 1 (0x1)Format : MPEG AudioFormat version : Version 1Format profile : Layer 2Mode : Joint stereoMode extension : Intensity Stereo + MS StereoCodec ID : 3Duration : 1h 33mnBit rate mode : ConstantBit rate : 192 KbpsChannel(s) : 2 channelsSampling rate : 48.0 KHzCompression mode : LossyStream size : 129 MiB (2%)Language : Russian
Audio #2ID : 2933 (0xB75)Menu ID : 1 (0x1)Format : AC-3Format/Info : Audio Coding 3Mode extension : CM (complete main)Format settings, Endianness : BigCodec ID : 129Duration : 1h 33mnBit rate mode : ConstantBit rate : 384 KbpsChannel(s) : 2 channelsChannel positions : Front: L RSampling rate : 48.0 KHzBit depth : 16 bitsCompression mode : LossyStream size : 258 MiB (4%)Language : Russian
Other forum [Profile] [PM]
Display posts from previous:    
Reply to topic

The time now is: Today 22:31

All times are GMT + 3 Hours



You cannot post new topics in this forum
You cannot reply to topics in this forum
You cannot edit your posts in this forum
You cannot delete your posts in this forum
You cannot vote in polls in this forum
You cannot attach files in this forum
You cannot download files in this forum