Today is a free download without charge Download

Вячеслав Бутусов и группа Ю-Питер. Юбилейный концерт Вячеслава Бутусова [2011, Rock, HDTV 1080i]

Reply to topic
 
Author
Message

Omen ®

Longevity: 8 years 4 months

Posts: 181087

Торрент-статистика

Post 13-Mar-2013 13:39

[Quote]

Вячеслав Бутусов и группа Ю-Питер. Юбилейный концерт Вячеслава Бутусова
Жанр: Rock
Продолжительность: 01:33:39
Год выпуска: 2011
Описание: Настоящее HD - видео в чистом потоке DVB без артефактов с исходным битрейтом 14 900 Kбит/сек.
Творчество Вячеслава Бутусова всегда было востребовано. И в лихие годы перестройки, когда у целого поколения сменились жизненные ориентиры и приоритеты; и уже в нынешнем столетии, когда все узнали Бутусова как творца, способного быть тонким лириком и романтиком.
Его главные песни не утратили свою злободневность и острую социальность и по сей день, поэтому так интересны самой активной и молодой аудитории. "Шар цвета хаки", "Хлоп-Хлоп", "Скованные одной цепью" - разве это не актуально в наши дни?... А фильм "БРАТ" Алексея Балабанова, музыка к которому полностью состоит из песен и саунд-треков Вячеслава? Фильм, ставший не просто культовым, а поистине народным. Его песни знают и поют миллионы.
К праздничному выступлению Вячеслав Бутусов приготовил уникальную программу, в которую будут включены все шедевры непотопляемого "Наутилуса", а также лучшее из новейшей романтики "Ю-Питера". А самое главное – нас ждёт оригинальное звучание главных песен "Нау", как это было 20 лет назад.
Вячеслав Бутусов: "В творчестве все должно быть исключительно по наитию и без каких-либо корыстных целей. Сколько раз я ни пытался внушить себе и другим, что сейчас сделаю нечто восхитительное, - ничего не получалось. Такие вещи происходят сами по себе, то есть свыше".
Доп. информация:

Треклист

Бриллиантовые дороги
Взгляд с экрана
Титаник
Песня идущего домой
Девушка по городу
Прогулки по воде
Негорькая слеза
Казанова
Вселенская
Терновник
Скованные одной цепью
Крылья
Тутанхамон
Шар цвета хаки
Хлоп-Хлоп
Моя звезда
Дыхание
Прощальное письмо
Качество: DVB HD 1080i
Контейнер: TS
Видео кодек: H.264
Аудио кодек: AAC
Видео: AVC, 1920х1080, 16:9, 14 900 Kбит/сек, 25 fps
Аудио 1: MPEG Audio, 192 Кбит/сек, 48 КГц, 2 канала
Аудио 2: Dolby AC-3, 384 Кбит/сек, 48 КГц, 2 канала

Отчёт MediaInfo / BDInfo

ОбщееИдентификатор : 16 (0x10)Полное имя : BUTUSOV (Edited).tsФормат : MPEG-TSРазмер файла : 10,7 ГбайтПродолжительность : 1 ч. 33 м.Режим общего битрейта : ПеременныйОбщий поток : 16,3 Мбит/сек
ВидеоИдентификатор : 2141 (0x85D)Идентификатор меню : 21004 (0x520C)Формат : AVCФормат/Информация : Advanced Video CodecПрофиль формата : [email protected]Параметр CABAC формата : ДаПараметр ReFrames формата : 3 кадраИдентификатор кодека : 27Продолжительность : 1 ч. 33 м.Битрейт : 14,9 Мбит/секШирина : 1920 пикселейВысота : 1080 пикселейСоотношение сторон : 16:9Частота кадров : 25,000 кадров/секСтандарт вещания : PALЦветовое пространство : YUVСубдискретизация насыщенности : 4:2:0Битовая глубина : 8 битТип развёртки : ЧересстрочнаяПорядок развёртки : Верхнее поле первоеБит/(Пиксели*Кадры) : 0.287Размер потока : 9,76 Гбайт (91%)Основные цвета : BT.709Характеристики трансфера : BT.709Коэффициенты матрицы : BT.709
Аудио #1Идентификатор : 2142 (0x85E)Идентификатор меню : 21004 (0x520C)Формат : MPEG AudioВерсия формата : Version 1Профиль формата : Layer 2Идентификатор кодека : 4Продолжительность : 1 ч. 33 м.Вид битрейта : ПостоянныйБитрейт : 192 Кбит/секКаналы : 2 каналаЧастота : 48,0 КГцМетод сжатия : С потерямиЗадержка видео : 53 мс.Размер потока : 129 Мбайт (1%)Язык : stdЯзык, дополнительно : Clean effects
Аудио #2Идентификатор : 2143 (0x85F)Идентификатор меню : 21004 (0x520C)Формат : AC-3Формат/Информация : Audio Coding 3Расширение режима : CM (complete main)Параметр Endianness формата : BigИдентификатор кодека : 6Продолжительность : 1 ч. 33 м.Вид битрейта : ПостоянныйБитрейт : 384 Кбит/секКаналы : 2 каналаРасположение каналов : Front: L RЧастота : 48,0 КГцБитовая глубина : 16 битМетод сжатия : С потерямиЗадержка видео : 133 мс.Размер потока : 258 Мбайт (2%)Язык : stdЯзык, дополнительно : Clean effects

Скриншоты

Other forum [Profile] [PM]
Display posts from previous:    
Reply to topic

The time now is: Today 12:14

All times are GMT + 3 Hours



You cannot post new topics in this forum
You cannot reply to topics in this forum
You cannot edit your posts in this forum
You cannot delete your posts in this forum
You cannot vote in polls in this forum
You cannot attach files in this forum
You cannot download files in this forum