Today is a free download without charge Download

Двойной удар / Double Impact (Шелдон Леттич / Sheldon Lettich) [1991, США, боевик, триллер, драма, криминал, BDRemux 1080p] MVO (x4) + AVO (x2) + Dub + Sub Rus + Original Eng

Reply to topic
 
Author
Message

Omen ®

Longevity: 8 years 5 months

Posts: 181087

Торрент-статистика

Post 13-Mar-2013 05:23

[Quote]

--Двойной удар
Double Impact
-- Страна: США
Студия: MGM
Жанр: боевик, триллер, драма, криминал
Год выпуска: 1991
Продолжительность: 01:49:43--Перевод: Профессиональный (многоголосый закадровый) x4
Перевод 2: Авторский (одноголосый закадровый) x2
Перевод 3: Профессиональный (дублированный)
Cубтитры: русские
Оригинальная аудиодорожка: английский--Режиссер: Шелдон Леттич / Sheldon Lettich--В ролях: Жан-Клод Ван Дамм, Джеффри Льюис, Алонна Шоу, Коринна Эверсон, Филип Чань, Алан Скарф, Боло Йенг, Энди Армстронг, Ву Фонг Ланг, Питер Малота--Описание: Когда-то мафия из Гонконга жестоко и безжалостно расправилась с родителями братьев-близнецов Чеда и Алекса, которых чудом удалось спасти в давней кровавой перестрелке. Судьба раскидала братьев по разные стороны океана: один рос в Калифорнии, другой остался в Гонконге. И вот спустя 25 лет стараниями верного друга их погибших родителей два брата встречаются, чтобы заставить виновников того преступления сильно раскаяться в некогда содеянном.--Сэмпл: http://yadi.sk/d/Bo5jVf3C3FAgQ--Тип релиза: BDRemux 1080p
Контейнер: MKV--Видео: MPEG4 Video (H264) 1920x1080 23.976fps 36Mbps
Аудио: DTS-HD Master Audio / English / 2084 kbps / 2.0 / 48 kHz / 2084 kbps / 24-bit (DTS Core: 2.0 / 48 kHz / 1509 kbps / 24-bit)
DTS-HD Master Audio / Russian / 2098 kbps / 2.0 / 48 kHz / 2098 kbps / 24-bit (DTS Core: 2.0 / 48 kHz / 1509 kbps / 24-bit) (MVO - R5)
Dolby Digital Audio / Russian / 448 kbps / 5.1 / 48 kHz / 448 kbps (MVO - OPT):
Dolby Digital Audio / Ukrainian / 192 kbps / 2.0 / 48 kHz / 192 kbps / DN -4dB (MVO - 2+2)
Dolby Digital Audio / Russian / 192 kbps / 2.0 / 48 kHz / 192 kbps / DN -4dB / Dolby Surround (MVO - THT)
Dolby Digital Audio / Russian / 224 kbps / 2.0 / 48 kHz / 224 kbps / DN -4dB / Dolby Surround (DUB - Хлопушка):
DTS-HD Master Audio / Russian / 2101 kbps / 2.0 / 48 kHz / 2101 kbps / 24-bit (DTS Core: 2.0 / 48 kHz / 1509 kbps / 24-bit) (VO - А.Гаврилов)
Dolby Digital Audio / Russian / 192 kbps / 2.0 / 48 kHz / 192 kbps / DN -4dB / Dolby Surround (VO - неизвестно)
Субтитры: (PGS): English, Russian, French

MediaInfo

Код:
General
Unique ID                      : 196355755913647446772611493532204902614 (0x93B8BE35AFB3AE6A9AA2216164D5A8D6)
Complete name                  : F:\TORRENTS\Double_Impact_bdremux_by_vok4at.mkv
Format                         : Matroska
Format version                 : Version 2
File size                      : 27.5 GiB
Duration                       : 1h 49mn
Overall bit rate mode          : Variable
Overall bit rate               : 36.0 Mbps
Movie name                     : Double Impact
Encoded date                   : UTC 2013-03-12 23:05:01
Writing application            : MakeMKV v1.8.0 win(x86-release)
Writing library                : libmakemkv v1.8.0 (1.2.0/1.1.0) win(x86-release)
Video
ID                             : 1
Format                         : AVC
Format/Info                    : Advanced Video Codec
Format profile                 : [email protected]
Format settings, CABAC         : Yes
Format settings, ReFrames      : 4 frames
Codec ID                       : V_MPEG4/ISO/AVC
Duration                       : 1h 49mn
Bit rate mode                  : Variable
Maximum bit rate               : 38.0 Mbps
Width                          : 1 920 pixels
Height                         : 1 080 pixels
Display aspect ratio           : 16:9
Frame rate mode                : Constant
Frame rate                     : 23.976 fps
Color space                    : YUV
Chroma subsampling             : 4:2:0
Bit depth                      : 8 bits
Scan type                      : Progressive
Language                       : English
Default                        : No
Forced                         : No
Audio #1
ID                             : 2
Format                         : DTS
Format/Info                    : Digital Theater Systems
Format profile                 : MA / Core
Mode                           : 16
Format settings, Endianness    : Big
Codec ID                       : A_DTS
Duration                       : 1h 49mn
Bit rate mode                  : Variable
Bit rate                       : Unknown / 1 509 Kbps
Channel(s)                     : 2 channels
Channel positions              : Front: L R
Sampling rate                  : 48.0 KHz
Bit depth                      : 24 bits
Compression mode               : Lossless / Lossy
Title                          : Lossless
Language                       : Russian
Default                        : Yes
Forced                         : No
Audio #2
ID                             : 3
Format                         : DTS
Format/Info                    : Digital Theater Systems
Mode                           : 16
Format settings, Endianness    : Big
Codec ID                       : A_DTS
Duration                       : 1h 49mn
Bit rate mode                  : Constant
Bit rate                       : 1 509 Kbps
Channel(s)                     : 2 channels
Channel positions              : Front: L R
Sampling rate                  : 48.0 KHz
Bit depth                      : 24 bits
Compression mode               : Lossy
Stream size                    : 1.16 GiB (4%)
Title                          : 2/0
Language                       : Russian
Default                        : No
Forced                         : No
Audio #3
ID                             : 4
Format                         : AC-3
Format/Info                    : Audio Coding 3
Mode extension                 : CM (complete main)
Format settings, Endianness    : Big
Codec ID                       : A_AC3
Duration                       : 1h 49mn
Bit rate mode                  : Constant
Bit rate                       : 448 Kbps
Channel(s)                     : 6 channels
Channel positions              : Front: L C R, Side: L R, LFE
Sampling rate                  : 48.0 KHz
Bit depth                      : 16 bits
Compression mode               : Lossy
Stream size                    : 351 MiB (1%)
Title                          : 3/2+1
Language                       : Russian
Default                        : No
Forced                         : No
Audio #4
ID                             : 5
Format                         : AC-3
Format/Info                    : Audio Coding 3
Format profile                 : Dolby Digital
Mode extension                 : CM (complete main)
Format settings, Endianness    : Big
Codec ID                       : A_AC3
Duration                       : 1h 49mn
Bit rate mode                  : Constant
Bit rate                       : 192 Kbps
Channel(s)                     : 2 channels
Channel positions              : Front: L R
Sampling rate                  : 48.0 KHz
Bit depth                      : 16 bits
Compression mode               : Lossy
Stream size                    : 151 MiB (1%)
Title                          : 2/0
Language                       : Russian
Default                        : No
Forced                         : No
Audio #5
ID                             : 6
Format                         : AC-3
Format/Info                    : Audio Coding 3
Format profile                 : Dolby Digital
Mode extension                 : CM (complete main)
Format settings, Endianness    : Big
Codec ID                       : A_AC3
Duration                       : 1h 49mn
Bit rate mode                  : Constant
Bit rate                       : 224 Kbps
Channel(s)                     : 2 channels
Channel positions              : Front: L R
Sampling rate                  : 48.0 KHz
Bit depth                      : 16 bits
Compression mode               : Lossy
Stream size                    : 176 MiB (1%)
Title                          : 2/0
Language                       : Russian
Default                        : No
Forced                         : No
Audio #6
ID                             : 7
Format                         : DTS
Format/Info                    : Digital Theater Systems
Format profile                 : MA / Core
Mode                           : 16
Format settings, Endianness    : Big
Codec ID                       : A_DTS
Duration                       : 1h 49mn
Bit rate mode                  : Variable
Bit rate                       : Unknown / 1 509 Kbps
Channel(s)                     : 2 channels
Channel positions              : Front: L R
Sampling rate                  : 48.0 KHz
Bit depth                      : 24 bits
Compression mode               : Lossless / Lossy
Title                          : Lossless
Language                       : Russian
Default                        : No
Forced                         : No
Audio #7
ID                             : 8
Format                         : DTS
Format/Info                    : Digital Theater Systems
Mode                           : 16
Format settings, Endianness    : Big
Codec ID                       : A_DTS
Duration                       : 1h 49mn
Bit rate mode                  : Constant
Bit rate                       : 1 509 Kbps
Channel(s)                     : 2 channels
Channel positions              : Front: L R
Sampling rate                  : 48.0 KHz
Bit depth                      : 24 bits
Compression mode               : Lossy
Stream size                    : 1.16 GiB (4%)
Title                          : 2/0
Language                       : Russian
Default                        : No
Forced                         : No
Audio #8
ID                             : 9
Format                         : AC-3
Format/Info                    : Audio Coding 3
Format profile                 : Dolby Digital
Mode extension                 : CM (complete main)
Format settings, Endianness    : Big
Codec ID                       : A_AC3
Duration                       : 1h 49mn
Bit rate mode                  : Constant
Bit rate                       : 192 Kbps
Channel(s)                     : 2 channels
Channel positions              : Front: L R
Sampling rate                  : 48.0 KHz
Bit depth                      : 16 bits
Compression mode               : Lossy
Stream size                    : 151 MiB (1%)
Title                          : 2/0
Language                       : Russian
Default                        : No
Forced                         : No
Audio #9
ID                             : 10
Format                         : DTS
Format/Info                    : Digital Theater Systems
Format profile                 : MA / Core
Mode                           : 16
Format settings, Endianness    : Big
Codec ID                       : A_DTS
Duration                       : 1h 49mn
Bit rate mode                  : Variable
Bit rate                       : Unknown / 1 509 Kbps
Channel(s)                     : 2 channels
Channel positions              : Front: L R
Sampling rate                  : 48.0 KHz
Bit depth                      : 24 bits
Compression mode               : Lossless / Lossy
Title                          : Lossless
Language                       : English
Default                        : No
Forced                         : No
Audio #10
ID                             : 11
Format                         : DTS
Format/Info                    : Digital Theater Systems
Mode                           : 16
Format settings, Endianness    : Big
Codec ID                       : A_DTS
Duration                       : 1h 49mn
Bit rate mode                  : Constant
Bit rate                       : 1 509 Kbps
Channel(s)                     : 2 channels
Channel positions              : Front: L R
Sampling rate                  : 48.0 KHz
Bit depth                      : 24 bits
Compression mode               : Lossy
Stream size                    : 1.16 GiB (4%)
Title                          : 2/0
Language                       : English
Default                        : No
Forced                         : No
Audio #11
ID                             : 12
Format                         : AC-3
Format/Info                    : Audio Coding 3
Mode extension                 : CM (complete main)
Format settings, Endianness    : Big
Codec ID                       : A_AC3
Duration                       : 1h 49mn
Bit rate mode                  : Constant
Bit rate                       : 192 Kbps
Channel(s)                     : 2 channels
Channel positions              : Front: L R
Sampling rate                  : 48.0 KHz
Bit depth                      : 16 bits
Compression mode               : Lossy
Stream size                    : 151 MiB (1%)
Title                          : 2/0
Language                       : Ukrainian
Default                        : No
Forced                         : No
Text #1
ID                             : 13
Format                         : PGS
Codec ID                       : S_HDMV/PGS
Codec ID/Info                  : The same subtitle format used on BDs/HD-DVDs
Language                       : Russian
Default                        : Yes
Forced                         : No
Text #2
ID                             : 15
Format                         : PGS
Codec ID                       : S_HDMV/PGS
Codec ID/Info                  : The same subtitle format used on BDs/HD-DVDs
Language                       : Russian
Default                        : No
Forced                         : No
Text #3
ID                             : 17
Format                         : PGS
Codec ID                       : S_HDMV/PGS
Codec ID/Info                  : The same subtitle format used on BDs/HD-DVDs
Language                       : English
Default                        : No
Forced                         : No
Text #4
ID                             : 19
Format                         : PGS
Codec ID                       : S_HDMV/PGS
Codec ID/Info                  : The same subtitle format used on BDs/HD-DVDs
Language                       : French
Default                        : No
Forced                         : No
Menu
00:00:00.000                   : en:Chapter 00
00:03:22.035                   : en:Chapter 01
00:09:45.334                   : en:Chapter 02
00:13:07.161                   : en:Chapter 03
00:21:00.050                   : en:Chapter 04
00:29:03.616                   : en:Chapter 05
00:37:33.251                   : en:Chapter 06
00:42:20.955                   : en:Chapter 07
00:50:04.376                   : en:Chapter 08
00:58:54.656                   : en:Chapter 09
01:07:32.131                   : en:Chapter 10
01:17:58.548                   : en:Chapter 11
01:23:50.066                   : en:Chapter 12
01:28:48.072                   : en:Chapter 13
01:34:14.398                   : en:Chapter 14
01:44:12.621                   : en:Chapter 15

-
-
-
-
Other forum [Profile] [PM]

Dracula

Longevity: 7 years 5 months

Posts: 11215

Торрент-статистика

Post 30-Mar-2013 09:12 (after 17 days)

Топик был перенесен из форума Зарубежное кино (HD Video) в форум Зарубежное кино


Delia
 
Similar theme
Forum Topic Author Torrent Replies Last Post
./templates/default/images/folder_dl.gif Техническая и научно-популярная литература Е.А.Рудометов, В.Е.Рудометов | Шпионские страсти. Электронные устройства двойного применения [2000] [DJVU] UndegraundMen
1 | 0

0 | 588

3

2013-06-26 03:12
UndegraundMen Latest
Display posts from previous:    
Reply to topic

The time now is: Today 13:41

All times are GMT + 3 Hours



You cannot post new topics in this forum
You cannot reply to topics in this forum
You cannot edit your posts in this forum
You cannot delete your posts in this forum
You cannot vote in polls in this forum
You cannot attach files in this forum
You cannot download files in this forum