Today is a free download without charge Download

Discovery: Наука магии (2 выпуска)/ Discovery: Science magic (2013) WEB-Rip[обновляемая]

Reply to topic
 
Author
Message

UndegraundMen ®

Longevity: 7 years 7 months

Posts: 25145

Торрент-статистика

Post 12-Mar-2013 21:11

[Quote]

Discovery: Наука магии (2 выпуска)/ Discovery: Science magic (2013) WEB-Rip[обновляемая]- Русское название: Discovery: Наука магии
Оригинальное название: Discovery: Science magic
Режиссер / Телекомпания: Discovery Channel
Год выпуска: 2013
Жанр: Документальный
Описание:
Четыре профессиональных иллюзиониста из разных стран используют науку для создания магии. Они расскажут, как физика, математика и химия помогают им ошеломлять людей. Это полностью изменит Ваше представление о мире. Вы увидите волшебство на улицах, фокусы со скрытой камерой и иллюзии. А удивив Вас раскроют научные принципы, благодаря которым получилось волшебство. Кажется чудом, но это наука. Узнайте все их секреты! Программа рождающая вопрос: Это магия? Или наука? Лучше 1 раз увидеть.
Продолжительность: 2 ~ 00:22:05
Перевод: Одноголосый закадровый, профессиональный
Видеокодек: Xvid
Битрейт видео: ~1499 Кбит/сек
Размер кадра: 854x480
Качество видео: WEB-Rip
Аудиокодек: MP3, 2 канала
Битрейт аудио: 256 Кбит/сек

Описание серий

Полет из пушки - 1 серия Уэйн оживляет моторное масло. Билли дает урок Восточных единоборств. Бен испытывает волшебный детектор лжи. А Джеймс бросает вызов гравитации.
Опасное падение - 2 серия Уэйн - человек с золотыми руками. Билли проникает в мысли незнакомца. Бен превращает лучи солнца в снег. А Джеймс падает с большой высоты.

MediaInfo

Общее
Полное имя : H:\ДОКУМЕНТАЛКИ\Наука магии\Наука магии_ Опасное падение - 2 серия.avi
Формат : AVI
Формат/Информация : Audio Video Interleave
Размер файла : 284 Мбайт
Продолжительность : 22 м.
Общий поток : 1768 Кбит/сек
Программа кодирования : Lavf52.94.0
Видео
Идентификатор : 0
Формат : MPEG-4 Visual
Профиль формата : [email protected]
Параметр BVOP формата : Нет
Параметр QPel формата : Нет
Параметр GMC формата : Без точки перехода
Параметр матрицы формата : Default (H.263)
Идентификатор кодека : XVID
Идентификатор кодека/Подсказка : XviD
Продолжительность : 22 м.
Битрейт : 1499 Кбит/сек
Ширина : 854 пикселя
Высота : 480 пикселей
Соотношение сторон : 16:9
Частота кадров : 25,000 кадров/сек
Цветовое пространство : YUV
Субдискретизация насыщенности : 4:2:0
Битовая глубина : 8 бит
Тип развёртки : Прогрессивная
Метод сжатия : С потерями
Бит/(Пиксели*Кадры) : 0.146
Размер потока : 241 Мбайт (85%)
Библиотека кодирования : XviD 1.2.1 (UTC 2008-12-04)
Аудио
Идентификатор : 1
Формат : MPEG Audio
Версия формата : Version 1
Профиль формата : Layer 3
Режим : Joint stereo
Расширение режима : MS Stereo
Идентификатор кодека : 55
Идентификатор кодека/Подсказка : MP3
Продолжительность : 22 м.
Вид битрейта : Постоянный
Битрейт : 256 Кбит/сек
Каналы : 2 канала
Частота : 48,0 КГц
Метод сжатия : С потерями
Размер потока : 41,1 Мбайт (14%)
Выравнивание : Соединение по промежуткам
Продолжительность промежутка : 24 мс. (0,60 видеокадр)
Библиотека кодирования : LAME3.98.4
Общее
Полное имя : H:\ДОКУМЕНТАЛКИ\Наука магии\Наука магии_ Полет из пушки - 1 серия.avi
Формат : AVI
Формат/Информация : Audio Video Interleave
Размер файла : 282 Мбайт
Продолжительность : 22 м.
Общий поток : 1767 Кбит/сек
Программа кодирования : Lavf52.94.0
Видео
Идентификатор : 0
Формат : MPEG-4 Visual
Профиль формата : [email protected]
Параметр BVOP формата : Нет
Параметр QPel формата : Нет
Параметр GMC формата : Без точки перехода
Параметр матрицы формата : Default (H.263)
Идентификатор кодека : XVID
Идентификатор кодека/Подсказка : XviD
Продолжительность : 22 м.
Битрейт : 1498 Кбит/сек
Ширина : 854 пикселя
Высота : 480 пикселей
Соотношение сторон : 16:9
Частота кадров : 25,000 кадров/сек
Цветовое пространство : YUV
Субдискретизация насыщенности : 4:2:0
Битовая глубина : 8 бит
Тип развёртки : Прогрессивная
Метод сжатия : С потерями
Бит/(Пиксели*Кадры) : 0.146
Размер потока : 239 Мбайт (85%)
Библиотека кодирования : XviD 1.2.1 (UTC 2008-12-04)
Аудио
Идентификатор : 1
Формат : MPEG Audio
Версия формата : Version 1
Профиль формата : Layer 3
Режим : Joint stereo
Расширение режима : MS Stereo
Идентификатор кодека : 55
Идентификатор кодека/Подсказка : MP3
Продолжительность : 22 м.
Вид битрейта : Постоянный
Битрейт : 256 Кбит/сек
Каналы : 2 канала
Частота : 48,0 КГц
Метод сжатия : С потерями
Размер потока : 40,9 Мбайт (14%)
Выравнивание : Соединение по промежуткам
Продолжительность промежутка : 24 мс. (0,60 видеокадр)
Библиотека кодирования : LAME3.98.4
Скриншоты:
       
       
Время раздачи: с 9:00 до 21:00 по МСК
Other forum [Profile] [PM]
Display posts from previous:    
Reply to topic

The time now is: Today 23:23

All times are GMT + 3 Hours



You cannot post new topics in this forum
You cannot reply to topics in this forum
You cannot edit your posts in this forum
You cannot delete your posts in this forum
You cannot vote in polls in this forum
You cannot attach files in this forum
You cannot download files in this forum