Today is a free download without charge Download

Уравнение любви / Серии: 1-2 из 8 (Рауф Кубаев) [2013, Мелодрама, HDTVRip - AVC]

Reply to topic
 
Author
Message

Omen ®

Longevity: 9 years

Posts: 181086

Торрент-статистика

Post 12-Mar-2013 21:01

[Quote]

Уравнение любви- Год выпуска: 2013
Производство: "Русские золотые серии"
Жанр: Мелодрама
Продолжительность: ~ 00:48:00
Субтитры: нет-Режиссёр: Рауф Кубаев-В ролях: Наталия Антонова, Александр Робак, Дмитрий Муляр, Екатерина Волкова, Александр Зельский, Евгения Туркова, Иван Соловьев, Анастасия Пронина, Галина Петрова, Вадим Андреев, и другие.-Описание: Размеренная, устоявшаяся жизнь Татьяны Сергеевой - заботливой жены и мамы, работающей воспитательницей в детском саду, резко меняется. Ее сын Денис сбивает на дороге девушку и уезжает с места происшествия. Денис не хочет садиться в тюрьму: у него скоро свадьба и защита диплома. Таня принимает непростое решение и берет вину сына на себя. И теперь и ее жизнь, и жизнь ее близких подвергается нелегким испытаниям – испытаниям верности, любви, дружбы. Теперь каждый должен доказать, способен ли он остаться человеком в чрезвычайных обстоятельствах.-Доп. Информация: Спасибо mydimka за предоставленный исходник!-Любая реклама ОТСУТСТВУЕТ!!!-Качество: HDTVRip - AVC
Формат: MKV
Видео кодек: H.264
Аудио кодек: AC3
Видео: x264, 1024 х 576 (16:9), 25,000 кадр/сек, ~ 1637 Кбит/сек, ~ 0.111 bit/pixel
Аудио: AC3, 48.0 KHz, 2 канала(ов), 256 Kbps

MI

Complete name : Уравнение любви.01 серия.2013.HDTVRip-AVC.Metla111.mkv
Format : Matroska
Format version : Version 2
File size : 650 MiB
Duration : 47mn 59s
Overall bit rate : 1 894 Kbps
Encoded date : UTC 2013-03-12 07:44:22
Writing application : mkvmerge v5.8.0 ('No Sleep / Pillow') built on Sep 2 2012 15:37:04
Writing library : libebml v1.2.3 + libmatroska v1.3.0
Video
ID : 1
Format : AVC
Format/Info : Advanced Video Codec
Format profile : [email protected]
Format settings, CABAC : Yes
Format settings, ReFrames : 10 frames
Codec ID : V_MPEG4/ISO/AVC
Duration : 47mn 59s
Bit rate : 1 637 Kbps
Width : 1 024 pixels
Height : 576 pixels
Display aspect ratio : 16:9
Frame rate mode : Constant
Frame rate : 25.000 fps
Color space : YUV
Chroma subsampling : 4:2:0
Bit depth : 8 bits
Scan type : Progressive
Bits/(Pixel*Frame) : 0.111
Stream size : 550 MiB (84%)
Writing library : x264 core 125 r2208 d9d2288
Encoding settings : cabac=1 / ref=10 / deblock=1:-3:-3 / analyse=0x3:0x113 / me=umh / subme=9 / psy=1 / psy_rd=1.00:0.20 / mixed_ref=1 / me_range=32 / chroma_me=1 / trellis=2 / 8x8dct=1 / cqm=0 / deadzone=21,11 / fast_pskip=1 / chroma_qp_offset=-3 / threads=6 / lookahead_threads=1 / sliced_threads=0 / nr=0 / decimate=0 / interlaced=0 / bluray_compat=0 / constrained_intra=0 / bframes=8 / b_pyramid=2 / b_adapt=2 / b_bias=0 / direct=3 / weightb=1 / open_gop=0 / weightp=2 / keyint=250 / keyint_min=25 / scenecut=40 / intra_refresh=0 / rc=2pass / mbtree=0 / bitrate=1637 / ratetol=1.0 / qcomp=0.70 / qpmin=0 / qpmax=69 / qpstep=4 / cplxblur=20.0 / qblur=0.5 / ip_ratio=1.40 / pb_ratio=1.30 / aq=1:1.00
Default : Yes
Forced : No
Color primaries : BT.709
Transfer characteristics : BT.709
Matrix coefficients : BT.709
Audio
ID : 2
Format : AC-3
Format/Info : Audio Coding 3
Mode extension : CM (complete main)
Format settings, Endianness : Big
Codec ID : A_AC3
Duration : 47mn 59s
Bit rate mode : Constant
Bit rate : 256 Kbps
Channel(s) : 2 channels
Channel positions : Front: L R
Sampling rate : 48.0 KHz
Bit depth : 16 bits
Compression mode : Lossy
Stream size : 87.9 MiB (14%)
Default : Yes
Forced : No

Log - x264

raw [info]: 1024x576p 1:1 @ 25/1 fps (cfr)
x264 [info]: using SAR=1/1
x264 [info]: using cpu capabilities: MMX2 SSE2Fast SSSE3 FastShuffle SSE4.2
x264 [info]: profile High, level 4.0
x264 [info]: frame I:578 Avg QP:16.61 size: 66365
x264 [info]: frame P:15425 Avg QP:19.64 size: 20292
x264 [info]: frame B:55593 Avg QP:21.78 size: 4286
x264 [info]: consecutive B-frames: 1.4% 1.8% 8.4% 24.7% 18.4% 39.8% 3.4% 1.2% 0.8%
x264 [info]: mb I I16..4: 10.6% 66.3% 23.1%
x264 [info]: mb P I16..4: 1.4% 7.0% 1.2% P16..4: 44.6% 23.1% 12.1% 0.0% 0.0% skip:10.7%
x264 [info]: mb B I16..4: 0.1% 0.4% 0.1% B16..8: 38.6% 6.0% 1.5% direct: 2.9% skip:50.4% L0:37.9% L1:50.7% BI:11.5%
x264 [info]: 8x8 transform intra:70.4% inter:57.1%
x264 [info]: direct mvs spatial:99.0% temporal:1.0%
x264 [info]: coded y,uvDC,uvAC intra: 81.0% 80.3% 54.7% inter: 15.1% 16.7% 6.1%
x264 [info]: i16 v,h,dc,p: 43% 13% 9% 35%
x264 [info]: i8 v,h,dc,ddl,ddr,vr,hd,vl,hu: 19% 10% 9% 7% 10% 12% 10% 12% 11%
x264 [info]: i4 v,h,dc,ddl,ddr,vr,hd,vl,hu: 20% 10% 5% 8% 12% 14% 11% 11% 10%
x264 [info]: i8c dc,h,v,p: 38% 20% 26% 16%
x264 [info]: Weighted P-Frames: Y:2.2% UV:1.0%
x264 [info]: ref P L0: 49.9% 13.8% 16.7% 4.7% 4.4% 2.9% 2.9% 1.4% 1.6% 1.5% 0.2% 0.0%
x264 [info]: ref B L0: 83.8% 9.1% 3.1% 1.4% 0.9% 0.7% 0.6% 0.3% 0.2%
x264 [info]: ref B L1: 94.1% 5.9%
x264 [info]: kb/s:1647.07

Скриншоты

Внимание ! Раздача ведётся путём добавления новых серий

Внимание! Раздача ведётся путём добавления новых серий; при каждом добавлении создаётся новый торрент. Чтобы начать докачку новой серии, пользователям необходимо сделать следующее:
(1) остановить скачивание,
(2) удалить старый торрент у себя из клиента (старые серии удалять не надо),
(3) скачать новый торрент и запустить его у себя в клиенте вместо старого, при этом указать клиенту путь в старую папку куда и должно происходить скачивание новых серий.
Ваш клиент при этом должен произвести хеширование (проверку) старой папки (если не производит сам - помогите ему сделать это), и будет докачивать только те серии которых у вас ещё нет. Старые серии при этом не удаляются, а продолжают раздаваться!
Если вы уже удалили старые серии, то предотвратить повторную закачку старых серий можно, отжав галочку в соответствующих местах при запуске нового торрента. По возможности, желательно не удалять старые серии как можно дольше чтобы релизёр не столько продолжал раздавать старые серии, а смог сконцентрироваться на новых.
-
Other forum [Profile] [PM]
Display posts from previous:    
Reply to topic

The time now is: Today 17:02

All times are GMT + 3 Hours



You cannot post new topics in this forum
You cannot reply to topics in this forum
You cannot edit your posts in this forum
You cannot delete your posts in this forum
You cannot vote in polls in this forum
You cannot attach files in this forum
You cannot download files in this forum