Today is a free download without charge Download

Пещера / The Cave (Брюс Хант / Bruce Hunt) [2005, США, Германия, ужасы, боевик, триллер, приключения, BDRip 1080p] DVO + MVO + AVO (Визгунов) + Original + sub

Reply to topic
 
Author
Message

Omen ®

Longevity: 8 years 5 months

Posts: 181087

Торрент-статистика

Post 12-Mar-2013 21:01

[Quote]

Пещера / The Cave- Год выпуска: 2005
Страна: США, Германия
Жанр: ужасы, боевик, триллер, приключения
Продолжительность: 01:37:09
Перевод 1: Профессиональный (двухголосый, закадровый)
Перевод 2: Профессиональный (многоголосый, закадровый)
Перевод 3: Авторский одноголосый С.Визгунов
Оригинальная звуковая дорожка: English
Cубтитры: English-Режиссер: Брюс Хант / Bruce Hunt
В ролях: Коул Хаузер, Эдди Сибриан, Моррис Честнат, Лина Хиди, Пайпер Перабо, Рик Раванелло, Дэниэл Дэ Ким, Киран Дарси-Смит, Марчел Юреш, Влад Радеску
Описание: В лесных дебрях Румынии группа ученых наталкивается на руины аббатства XIII века. Обследовав их, они совершают удивительное открытие - это сооружение было построено над входом в гигантский подземный грот. А по мнению местных биологов, в гроте существует уникальная и еще не познанная экосистема.
В итоге они отправляются выведывать ее тайны вместе с американскими спелеологами - Джеком, его братом Тайлером и группой лучших в мире ныряльщиков. В их распоряжении - самое современное оборудование, с помощью которого можно в течение 24 часов оставаться под водой. Оказавшись в гроте, исследователи, к своему ужасу, находят не новую экосистему, а невиданных доселе существ...-Релиз: by Skazhutin
Формат: MKV
Видео: 1920x800 at 23.976 fps, [email protected], 2pass, ~13000 kbps avg
Аудио #1: Russian: 48 kHz, AC3, 3/2 (L,C,R,l,r) + LFE ch, ~384.00 kbps avg |Двухголосый закадровый|
Аудио #2: Russian: 48 kHz, AC3, 2/0 (L,R) ch, ~192.00 kbps avg |Многоголосый закадровый, СТС|
Аудио #3: Russian: 48 kHz, AC3, 2/0 (L,R) ch, ~192.00 kbps avg |Одноголосый закадровый, С. Визгунов|
Аудио #4: English: 48 kHz, DTS, 3/2 (L,C,R,l,r) + LFE ch, ~1536.00 kbps avg
Аудио #5: English: 48 kHz, AAC, 2/0 (L,R) ch, ~110.00 kbps avg |Commentary with director Bruce Hunt, producer Andrew Mason and special effects producer James McQuaide|
Семпл-

-

mInfo


Формат : Matroska
Версия формата : Version 4 / Version 2
Размер файла : 10,4 Гбайт
Продолжительность : 1 ч. 37 м.
Общий поток : 15,4 Мбит/сек
Название фильма : The Cave (2005) - Release for HDCLUB by Skazhutin
Дата кодирования : UTC 2013-03-12 12:37:07
Программа кодирования : mkvmerge v6.1.0 ('Old Devil') built on Mar 2 2013 14:32:37
Библиотека кодирования : libebml v1.3.0 + libmatroska v1.4.0
Attachment : Yes / Yes
Видео
Идентификатор : 1
Формат : AVC
Формат/Информация : Advanced Video Codec
Профиль формата : [email protected]
Параметр CABAC формата : Да
Параметр ReFrames формата : 5 кадров
Идентификатор кодека : V_MPEG4/ISO/AVC
Продолжительность : 1 ч. 37 м.
Номинальный битрейт : 13,0 Мбит/сек
Ширина : 1920 пикселей
Высота : 800 пикселей
Соотношение сторон : 2,40:1
Частота кадров : 23,976 кадра/сек
Цветовое пространство : YUV
Субдискретизация насыщенности : 4:2:0
Битовая глубина : 8 бит
Тип развёртки : Прогрессивная
Бит/(Пиксели*Кадры) : 0.353
Заголовок : Release for HDCLUB
Библиотека кодирования : x264 core 130 r2273kMod b3065e6
Настройки программы : cabac=1 / ref=5 / deblock=1:-3:-3 / analyse=0x3:0x113 / me=umh / subme=11 / psy=1 / fade_compensate=0.00 / psy_rd=1.00:0.00 / mixed_ref=1 / me_range=48 / chroma_me=1 / trellis=2 / 8x8dct=1 / cqm=0 / deadzone=21,11 / fast_pskip=0 / chroma_qp_offset=-2 / threads=12 / lookahead_threads=3 / sliced_threads=0 / nr=0 / decimate=0 / interlaced=0 / bluray_compat=0 / constrained_intra=0 / bframes=12 / b_pyramid=2 / b_adapt=2 / b_bias=0 / direct=3 / weightb=1 / open_gop=0 / weightp=2 / keyint=250 / keyint_min=23 / scenecut=40 / intra_refresh=0 / rc_lookahead=40 / rc=2pass / mbtree=0 / bitrate=13000 / ratetol=1.0 / qcomp=0.60 / qpmin=0 / qpmax=69 / qpstep=4 / cplxblur=20.0 / qblur=0.5 / vbv_maxrate=50000 / vbv_bufsize=62500 / nal_hrd=none / ip_ratio=1.40 / pb_ratio=1.30 / aq=1:0.80
Язык : English
Коэффициенты матрицы : BT.709-5, BT.1361, IEC 61966-2-4 709, SMPTE RP177
Аудио #1
Идентификатор : 2
Формат : AC-3
Формат/Информация : Audio Coding 3
Расширение режима : CM (complete main)
Идентификатор кодека : A_AC3
Продолжительность : 1 ч. 37 м.
Вид битрейта : Постоянный
Битрейт : 384 Кбит/сек
Каналы : 6 каналов
Расположение каналов : Front: L C R, Side: L R, LFE
Частота : 48,0 КГц
Битовая глубина : 16 бит
Метод сжатия : С потерями
Размер потока : 267 Мбайт (2%)
Заголовок : AC3 5.1 @ 384 kbps - DVO
Язык : Russian
Аудио #2
Идентификатор : 3
Формат : AC-3
Формат/Информация : Audio Coding 3
Расширение режима : CM (complete main)
Идентификатор кодека : A_AC3
Продолжительность : 1 ч. 37 м.
Вид битрейта : Постоянный
Битрейт : 192 Кбит/сек
Каналы : 2 канала
Расположение каналов : Front: L R
Частота : 48,0 КГц
Битовая глубина : 16 бит
Метод сжатия : С потерями
Размер потока : 133 Мбайт (1%)
Заголовок : AC3 2.0 @ 192 kbps - MVO, STS
Язык : Russian
Аудио #3
Идентификатор : 4
Формат : AC-3
Формат/Информация : Audio Coding 3
Расширение режима : CM (complete main)
Идентификатор кодека : A_AC3
Продолжительность : 1 ч. 37 м.
Вид битрейта : Постоянный
Битрейт : 192 Кбит/сек
Каналы : 2 канала
Расположение каналов : Front: L R
Частота : 48,0 КГц
Битовая глубина : 16 бит
Метод сжатия : С потерями
Размер потока : 133 Мбайт (1%)
Заголовок : AC3 2.0 @ 192 kbps - VO, Vizgunov
Язык : Russian
Аудио #4
Идентификатор : 5
Формат : DTS
Формат/Информация : Digital Theater Systems
Идентификатор кодека : A_DTS
Продолжительность : 1 ч. 37 м.
Вид битрейта : Постоянный
Битрейт : 1510 Кбит/сек
Каналы : 6 каналов
Расположение каналов : Front: L C R, Side: L R, LFE
Частота : 48,0 КГц
Битовая глубина : 24 бит
Метод сжатия : С потерями
Размер потока : 1,02 Гбайт (10%)
Заголовок : DTS 5.1 @ 1536 kbps
Язык : English
Аудио #5
Идентификатор : 6
Формат : AAC
Формат/Информация : Advanced Audio Codec
Профиль формата : LC
Идентификатор кодека : A_AAC
Продолжительность : 1 ч. 37 м.
Каналы : 2 канала
Расположение каналов : Front: L R
Частота : 48,0 КГц
Метод сжатия : С потерями
Задержка видео : 9 мс.
Заголовок : Commentary with director Bruce Hunt, producer Andrew Mason and special effects producer James McQuaide
Язык : English
Текст
Идентификатор : 7
Формат : UTF-8
Идентификатор кодека : S_TEXT/UTF8
Идентификатор кодека/Информация : UTF-8 Plain Text
Язык : English
Меню
00:00:00.000 : en:Start
00:06:49.742 : en:"Where's the cave?"
00:10:57.698 : en:Cave Divers
00:16:57.725 : en:To the Carpathians
00:23:22.734 : en:The Plan
00:30:50.723 : en:Descent
00:37:44.720 : en:Scouts
00:42:09.610 : en:In the Water
00:49:31.093 : en:Chewed
00:55:25.363 : en:"We are the rescue team."
01:00:03.224 : en:Jack Attack
01:07:57.031 : en:Back in the Food Chain
01:14:43.729 : en:A Current
01:19:21.965 : en:A Serious Death Wish
01:26:25.388 : en:The Drop
01:29:31.991 : en:"It's over."

-
Цитата:

*** Спасибо Виталя_А и SolarOlya за дорожку СТС.
*** Спасибо dgioev за дорожку Визгунова.
Other forum [Profile] [PM]
Display posts from previous:    
Reply to topic

The time now is: Today 12:37

All times are GMT + 3 Hours



You cannot post new topics in this forum
You cannot reply to topics in this forum
You cannot edit your posts in this forum
You cannot delete your posts in this forum
You cannot vote in polls in this forum
You cannot attach files in this forum
You cannot download files in this forum