Today is a free download without charge Download

Аладдин / Aladdin (Рон Клементс / Ron Clements, Джон Маскер / John Musker) [1992, мюзикл, фэнтези, мелодрама, комедия, приключения, BDRemux] DVO + AVO + Dub + Rus Sub

Reply to topic
 
Author
Message

Omen ®

Longevity: 8 years

Posts: 181087

Торрент-статистика

Post 12-Mar-2013 21:01

[Quote]

Аладдин / Aladdin
Страна: США
Жанр: мюзикл, фэнтези, мелодрама, комедия, приключения
Продолжительность: 01:30:48
Год выпуска: 1992
Перевод: Любительский (двухголосый закадровый) Гланц и Королева
Перевод 2: Авторский (одноголосый закадровый) Михалев
Перевод 3: Профессиональный (дублированный)
Перевод 4: Авторский (одноголосый закадровый) Марченко
Русские субтитры: есть
Режиссёр: Рон Клементс / Ron Clements, Джон Маскер / John Musker
Роли озвучивали: Скотт Венгер, Робин Уильямс, Линда Ларкин, Джонатан Фриман, Фрэнк Уэлкер, Гилберт Готтфрид, Дуглас Сил, Чарльз Адлер, Джек Эйнджел, Кори Бертон
Описание: В славном граде Аграба живет Аладдин, веселый воришка с золотым сердцем. Живет и не знает, что вскоре его ждет величайшее приключение в жизни. Ведь только с его помощью черный маг Джафар может овладеть невероятным сокровищем - лампой, в которой заключен исполняющий желания могущественный Джинн. И только хитроумие, смекалка и доброта Аладдина и его друзей - обезьянки Абу, принцессы Джасмин и самого Джинна способны помешать Джафару завладеть лампой и захватить власть над миром...
Дополнительная информация: Релиз и delo2006
Качество: BDRemux
Формат: MKV
Видео: MPEG-4 AVC Video 30956 kbps 1080p / 23,976 fps / 16:9 / High Profile 4.1
Аудио: DTS-HD Master Audio English 4935 kbps 5.1 / 48 kHz / 4935 kbps / 24-bit (DTS Core: 5.1 / 4)
Аудио 2: DTS-HD Master Audio Russian3921 kbps 5.1 / 48 kHz / 3921 kbps / 24-bit (DTS Core: 5.1 / 48 kHz / 1509 kbps / 24-bit) - Любительский (двухголосый закадровый) Гланц и Королева
Аудио 3: DTS-HD Master Audio Russian 3992 kbps 5.1 / 48 kHz / 3992 kbps / 24-bit (DTS Core: 5.1 / 48 kHz / 1509 kbps / 24-bit) - Авторский (одноголосый закадровый) Михалев
Аудио 4: Dolby Digital Audio Russian 640 kbps 5.1 / 48 kHz / 640 kbps - Профессиональный (дублированный)
Аудио 5: Dolby Digital Audio Russian 192 kbps 2.0 / 48 kHz / 192 kbps / DN -4dB - Авторский (одноголосый закадровый) Марченко
Субтитры: rus, eng

Подробные технические данные

Уникальный идентификатор : 254861257944856572325752101457393146358 (0xBFBC7E2A5ECDA690A6682E51726CD9F6)Полное имя : Aladdin.mkvФормат : MatroskaВерсия формата : Version 4 / Version 2Размер файла : 28,3 ГбайтПродолжительность : 1 ч. 30 м.Режим общего битрейта : ПеременныйОбщий поток : 44,8 Мбит/секДата кодирования : UTC 2013-03-12 15:23:27Программа кодирования : mkvmerge v6.1.0 ('Old Devil') built on Mar 2 2013 14:32:37Библиотека кодирования : libebml v1.3.0 + libmatroska v1.4.0
ВидеоИдентификатор : 1Формат : AVCФормат/Информация : Advanced Video CodecПрофиль формата : [email protected]Параметр CABAC формата : ДаПараметр ReFrames формата : 4 кадраИдентификатор кодека : V_MPEG4/ISO/AVCПродолжительность : 1 ч. 30 м.Вид битрейта : ПеременныйБитрейт : 37,5 Мбит/секМаксимальный битрейт : 32,0 Мбит/секШирина : 1920 пикселейВысота : 1080 пикселейСоотношение сторон : 16:9Режим частоты кадров : ПостоянныйЧастота кадров : 23,976 кадра/секЦветовое пространство : YUVСубдискретизация насыщенности : 4:2:0Битовая глубина : 8 битТип развёртки : ПрогрессивнаяБит/(Пиксели*Кадры) : 0.755Размер потока : 23,8 Гбайт (84%)Язык : EnglishDefault : ДаForced : Нет
Аудио #1Идентификатор : 2Формат : DTSФормат/Информация : Digital Theater SystemsПрофиль формата : MA / CoreИдентификатор кодека : A_DTSПродолжительность : 1 ч. 30 м.Вид битрейта : ПеременныйБитрейт : 2392 Кбит/сек / 1510 Кбит/секКаналы : 6 каналовРасположение каналов : Front: L C R, Side: L R, LFEЧастота : 48,0 КГцБитовая глубина : 24 битМетод сжатия : Без потерь / LossyЯзык : EnglishDefault : ДаForced : Нет
Аудио #2Идентификатор : 3Формат : DTSФормат/Информация : Digital Theater SystemsПрофиль формата : MA / CoreИдентификатор кодека : A_DTSПродолжительность : 1 ч. 30 м.Вид битрейта : ПеременныйБитрейт : 1561 Кбит/сек / 1510 Кбит/секКаналы : 6 каналовРасположение каналов : Front: L C R, Side: L R, LFEЧастота : 48,0 КГцБитовая глубина : 24 битМетод сжатия : Без потерь / LossyЯзык : RussianDefault : НетForced : Нет
Аудио #3Идентификатор : 4Формат : DTSФормат/Информация : Digital Theater SystemsПрофиль формата : MA / CoreИдентификатор кодека : A_DTSПродолжительность : 1 ч. 30 м.Вид битрейта : ПеременныйБитрейт : 1561 Кбит/сек / 1510 Кбит/секКаналы : 6 каналовРасположение каналов : Front: L C R, Side: L R, LFEЧастота : 48,0 КГцБитовая глубина : 24 битМетод сжатия : Без потерь / LossyЯзык : RussianDefault : НетForced : Нет
Аудио #4Идентификатор : 5Формат : AC-3Формат/Информация : Audio Coding 3Расширение режима : CM (complete main)Параметр Endianness формата : BigИдентификатор кодека : A_AC3Продолжительность : 1 ч. 30 м.Вид битрейта : ПостоянныйБитрейт : 640 Кбит/секКаналы : 6 каналовРасположение каналов : Front: L C R, Side: L R, LFEЧастота : 48,0 КГцБитовая глубина : 16 битМетод сжатия : С потерямиРазмер потока : 415 Мбайт (1%)Язык : RussianDefault : НетForced : Нет
Аудио #5Идентификатор : 6Формат : AC-3Формат/Информация : Audio Coding 3Расширение режима : CM (complete main)Параметр Endianness формата : BigИдентификатор кодека : A_AC3Продолжительность : 1 ч. 30 м.Вид битрейта : ПостоянныйБитрейт : 192 Кбит/секКаналы : 2 каналаРасположение каналов : Front: L RЧастота : 48,0 КГцБитовая глубина : 16 битМетод сжатия : С потерямиРазмер потока : 125 Мбайт (0%)Язык : RussianDefault : НетForced : Нет
Текст #1Идентификатор : 7Формат : PGSИдентификатор кодека : S_HDMV/PGSИдентификатор кодека/Информация : The same subtitle format used on BDs/HD-DVDsЯзык : EnglishDefault : ДаForced : Нет
Текст #2Идентификатор : 8Формат : PGSИдентификатор кодека : S_HDMV/PGSИдентификатор кодека/Информация : The same subtitle format used on BDs/HD-DVDsЯзык : EnglishDefault : НетForced : Нет
Текст #3Идентификатор : 9Формат : PGSИдентификатор кодека : S_HDMV/PGSИдентификатор кодека/Информация : The same subtitle format used on BDs/HD-DVDsЯзык : RussianDefault : НетForced : Нет
Текст #4Идентификатор : 10Формат : PGSИдентификатор кодека : S_HDMV/PGSИдентификатор кодека/Информация : The same subtitle format used on BDs/HD-DVDsЯзык : EnglishDefault : НетForced : Нет
Текст #5Идентификатор : 11Формат : PGSИдентификатор кодека : S_HDMV/PGSИдентификатор кодека/Информация : The same subtitle format used on BDs/HD-DVDsЯзык : EnglishDefault : НетForced : Нет
Текст #6Идентификатор : 12Формат : PGSИдентификатор кодека : S_HDMV/PGSИдентификатор кодека/Информация : The same subtitle format used on BDs/HD-DVDsЯзык : RussianDefault : НетForced : Нет
Текст #7Идентификатор : 13Формат : PGSИдентификатор кодека : S_HDMV/PGSИдентификатор кодека/Информация : The same subtitle format used on BDs/HD-DVDsЯзык : EnglishDefault : НетForced : Нет
Текст #8Идентификатор : 14Формат : PGSИдентификатор кодека : S_HDMV/PGSИдентификатор кодека/Информация : The same subtitle format used on BDs/HD-DVDsЯзык : EnglishDefault : НетForced : Нет
Текст #9Идентификатор : 15Формат : PGSИдентификатор кодека : S_HDMV/PGSИдентификатор кодека/Информация : The same subtitle format used on BDs/HD-DVDsЯзык : RussianDefault : НетForced : Нет
Текст #10Идентификатор : 16Формат : PGSИдентификатор кодека : S_HDMV/PGSИдентификатор кодека/Информация : The same subtitle format used on BDs/HD-DVDsЯзык : RussianDefault : НетForced : Нет
Текст #11Идентификатор : 17Формат : UTF-8Идентификатор кодека : S_TEXT/UTF8Идентификатор кодека/Информация : UTF-8 Plain TextЯзык : RussianDefault : НетForced : Нет
Меню00:00:00.000 : en:"Arabian Nights"00:03:06.060 : en:It Begins on a Dark Night00:06:47.323 : en:Aladdin on the Run / "One Jump Ahead"00:12:37.423 : en:Princess Jasmine00:16:34.618 : en:Jasmine Runs Away00:19:39.052 : en:Jafar Discovers His Diamond in the Rough00:23:50.470 : en:Jasmine Confronts Jafar00:27:39.324 : en:Aladdin at the Cave of Wonders00:31:21.629 : en:A Narrow Escape00:34:55.676 : en:Trapped!00:37:20.363 : en:"A Friend Like Me"00:41:13.387 : en:The Sultan Upbraids Jafar00:43:32.860 : en:Aladdin Contemplates His Three Wishes00:47:17.042 : en:Jafar's Solution to the Problem00:48:39.958 : en:"Prince Ali"00:55:20.025 : en:Prince Ali Appears on Jasmine's Balcony00:57:37.745 : en:A Ride on the Magic Carpet / "a Whole New World"01:03:04.906 : en:Aladdin Almost Drowns01:07:24.915 : en:Aladdin's Dilemma01:10:07.411 : en:A Royal Announcement01:10:41.654 : en:The Genie's New Master01:15:31.610 : en:Jafar in Power01:18:57.983 : en:Jafar the Snake01:21:41.438 : en:Back to Normal01:25:43.555 : en:End Credits / "A Whole New World"

Скриншоты












Сэмпл тут или там
Other forum [Profile] [PM]
Display posts from previous:    
Reply to topic

The time now is: Today 12:04

All times are GMT + 3 Hours



You cannot post new topics in this forum
You cannot reply to topics in this forum
You cannot edit your posts in this forum
You cannot delete your posts in this forum
You cannot vote in polls in this forum
You cannot attach files in this forum
You cannot download files in this forum