Today is a free download without charge Download

Discovery: Небо в Огне. Планета день за днём. Челябинский метеорит / Discovery: Fire In The Sky: A Daily Planet. (2013) WEB-Rip

Reply to topic
 
Author
Message

UndegraundMen ®

Longevity: 7 years 7 months

Posts: 25145

Торрент-статистика

Post 12-Mar-2013 17:28

[Quote]

Discovery: Небо в Огне. Планета день за днём. Челябинский метеорит / Discovery: Fire In The Sky: A Daily Planet. (2013) WEB-Rip- Русское название: Discovery: Небо в Огне. Планета день за днём. Челябинский метеорит
Оригинальное название: Discovery: Fire In The Sky: A Daily Planet.
Режиссер / Телекомпания: Discovery Channel
Год выпуска: 2013
Жанр: Документальный
Описание:
Россия, Челябинск. Метеорит появляется из неоткуда, сея панику и разрушения. Почему никто о нем не знал и будет ли продолжение?
В тот же самый день, астероид размером со стадион подошел к Земле ближе чем Луна и чудом миновал её. В этой передаче вы узнаете подробности обоих этих событий.
Продолжительность: 00:42:01
Перевод: Одноголосый закадровый, профессиональный
Видеокодек: Xvid
Битрейт видео: ~1158Кбит/сек
Размер кадра: 636x360
Качество видео: WEB-Rip
Аудиокодек: MP3, 2 канала
Битрейт аудио: 256 Кбит/сек

MediaInfo

Общее
Полное имя : H:\ДОКУМЕНТАЛКИ\Небо в огне. Челябинский метеорит.avi
Формат : AVI
Формат/Информация : Audio Video Interleave
Размер файла : 429 Мбайт
Продолжительность : 42 м.
Общий поток : 1427 Кбит/сек
Программа кодирования : Lavf52.94.0
Видео
Идентификатор : 0
Формат : MPEG-4 Visual
Профиль формата : [email protected]
Параметр BVOP формата : Нет
Параметр QPel формата : Нет
Параметр GMC формата : Без точки перехода
Параметр матрицы формата : Default (H.263)
Идентификатор кодека : XVID
Идентификатор кодека/Подсказка : XviD
Продолжительность : 42 м.
Битрейт : 1158 Кбит/сек
Ширина : 636 пикселей
Высота : 360 пикселей
Соотношение сторон : 16:9
Частота кадров : 25,000 кадров/сек
Цветовое пространство : YUV
Субдискретизация насыщенности : 4:2:0
Битовая глубина : 8 бит
Тип развёртки : Прогрессивная
Метод сжатия : С потерями
Бит/(Пиксели*Кадры) : 0.202
Размер потока : 348 Мбайт (81%)
Библиотека кодирования : XviD 1.2.1 (UTC 2008-12-04)
Аудио
Идентификатор : 1
Формат : MPEG Audio
Версия формата : Version 1
Профиль формата : Layer 3
Режим : Joint stereo
Идентификатор кодека : 55
Идентификатор кодека/Подсказка : MP3
Продолжительность : 42 м.
Вид битрейта : Постоянный
Битрейт : 256 Кбит/сек
Каналы : 2 канала
Частота : 48,0 КГц
Метод сжатия : С потерями
Размер потока : 76,9 Мбайт (18%)
Выравнивание : Соединение по промежуткам
Продолжительность промежутка : 24 мс. (0,60 видеокадр)
Библиотека кодирования : LAME3.98.4ЄЄЄЄЄЄЄЄЄЄ
Скриншоты:
       
       
Время раздачи: с 9:00 до 21:00 по МСК
Other forum [Profile] [PM]
Display posts from previous:    
Reply to topic

The time now is: Today 12:49

All times are GMT + 3 Hours



You cannot post new topics in this forum
You cannot reply to topics in this forum
You cannot edit your posts in this forum
You cannot delete your posts in this forum
You cannot vote in polls in this forum
You cannot attach files in this forum
You cannot download files in this forum