Today is a free download without charge Download

Discovery: Золото джунглей (1 выпуск)/ Discovery: Jungle Gold (2013) SATRip [обновляемая]

Reply to topic
 
Author
Message

UndegraundMen ®

Longevity: 7 years 7 months

Posts: 25145

Торрент-статистика

Post 12-Mar-2013 17:28

[Quote]

Discovery: Золото джунглей (1 выпуск)/ Discovery: Jungle Gold (2013) SATRip[обновляемая] - Русское название: Discovery: Золото джунглей
Оригинальное название: Discovery: Jungle Gold
Режиссер / Телекомпания: Discovery Channel
Год выпуска: 2013
Жанр: Документальный
Описание:
Новая телепрограмма «Золото джунглей» расскажет нам о жизни Скотта Лому и Джорджа Райта, которые несколько лет назад были строительными магнатами. Но они так были зацыклены на следующей операции, что даже не смогли заметить плохих признаков и обанкротились из-за кризиса 2008 года. Под угрозой оказалось будущее их семей. Спеша изменить данную ситуацию, они поехали из Юты в джунгли Ганы (Западная Африка). Золотые запасы в этой стране на столько велики, что даже золотоискатели-аматоры с примитивным оборудованием могут сколотить целое состояние. Купив 30 гектаров богатой на золото территории, они живут надеждой разбогатеть. Добыть золото не очень то просто. Сберечь его в опасных джунглях Ганы и выжить - еще сложнее. Узнайте, как Скотт и Джордж поддают риску свои жизни и не смотря на поломки оборудования, территориальные споры, конкуренцию и борьбу с самими джунглями, для того чтобы в конце-концов вернуть прежний уровень жизни.
Продолжительность: 00:43:58
Перевод: Одноголосый закадровый, профессиональный
Видеокодек: Xvid
Битрейт видео: ~1500 Кбит/сек
Размер кадра: 768x576
Качество видео: SATRip
Аудиокодек: MP3, 2 канала
Битрейт аудио: 256 Кбит/сек
Скриншоты:
       
       

MediaInfo

Общее
Полное имя : H:\ДОКУМЕНТАЛКИ\Золото джунглей\Золото джунглей_(1).avi
Формат : AVI
Формат/Информация : Audio Video Interleave
Размер файла : 557 Мбайт
Продолжительность : 44 м.
Общий поток : 1769 Кбит/сек
Программа кодирования : Lavf52.94.0
Видео
Идентификатор : 0
Формат : MPEG-4 Visual
Профиль формата : [email protected]
Параметр BVOP формата : Нет
Параметр QPel формата : Нет
Параметр GMC формата : Без точки перехода
Параметр матрицы формата : Default (H.263)
Идентификатор кодека : XVID
Идентификатор кодека/Подсказка : XviD
Продолжительность : 44 м.
Битрейт : 1500 Кбит/сек
Ширина : 768 пикселей
Высота : 576 пикселей
Соотношение сторон : 4:3
Частота кадров : 25,000 кадров/сек
Цветовое пространство : YUV
Субдискретизация насыщенности : 4:2:0
Битовая глубина : 8 бит
Тип развёртки : Прогрессивная
Метод сжатия : С потерями
Бит/(Пиксели*Кадры) : 0.136
Размер потока : 472 Мбайт (85%)
Библиотека кодирования : XviD 1.2.1 (UTC 2008-12-04)
Аудио
Идентификатор : 1
Формат : MPEG Audio
Версия формата : Version 1
Профиль формата : Layer 3
Режим : Joint stereo
Расширение режима : MS Stereo
Идентификатор кодека : 55
Идентификатор кодека/Подсказка : MP3
Продолжительность : 44 м.
Вид битрейта : Постоянный
Битрейт : 256 Кбит/сек
Каналы : 2 канала
Частота : 48,0 КГц
Метод сжатия : С потерями
Размер потока : 80,6 Мбайт (14%)
Выравнивание : Соединение по промежуткам
Продолжительность промежутка : 24 мс. (0,60 видеокадр)
Время раздачи: с 9:00 до 21:00 по МСК
Other forum [Profile] [PM]
Display posts from previous:    
Reply to topic

The time now is: Today 09:49

All times are GMT + 3 Hours



You cannot post new topics in this forum
You cannot reply to topics in this forum
You cannot edit your posts in this forum
You cannot delete your posts in this forum
You cannot vote in polls in this forum
You cannot attach files in this forum
You cannot download files in this forum