Today is a free download without charge Download

Учитель в законе. Возвращение (Сезон 3, серии 1-4 из 32) (2012) DVB (обновляемая)

Reply to topic
 
Author
Message

UndegraundMen ®

Longevity: 8 years 9 months

Posts: 25145

Торрент-статистика

Post 12-Mar-2013 13:05

[Quote]

Учитель в законе. Возвращение (Сезон 3, серии 1-4 из 32) (2012) DVB (обновляемая)- Русское название: Учитель в законе. Возвращение
Производство: Мостелефильм
Год выпуска: 2012
Жанр: Боевик, Драма, Криминал
Режиссер: Сергей Виноградов, Рустам Уразаев
Актеры: Юрий Беляев, Михаил Горевой, Александр Кузнецов, Сергей Векслер, Всеволод Николаев, Кристина Бабушкина, Наталия Антонова, Константин Желдин, Георгий Пицхелаури, Владимир Стеклов, Олеся Судзиловская, Дмитрий Янышевский
Описание фильма:
Прошел год после предыдущих событий. Отец и сын Богомоловы живут в городе Солнечный. Ваня ходит в школу, Борис Андреевич руководит приютом для детей, оказавшихся в сложной жизненной ситуации. Отец и сын живут под настоящей фамилией. С законом Богомол в ладу, с прошлым он завязал… Так ему только кажется. В городе Солнечный происходит рейдерский захват ювелирного завода. Директора завода расстреливают прямо у проходной наемные убийцы? Причем сразу же после встречи с Богомолом. Начинается следствие. Так как прошлое Богомолова для полиции не секрет, он — потенциальный подозреваемый…
Продолжительность: серия ~ 00:45
Качество видео: DVBRip
Видеокодек: MPEG-2
Битрейт видео: ~5100 Kbps
Размер кадра: 720x576
Аудиокодек: MP2
Битрейт аудио: 2 ch, 192 Kbps

MediaInfo:

Код:
Общее
Полное имя : E:\DOWNLOADS\Учитель в законе. Возвращение (2012) DVB\Учитель в законе. Возвращение - 1 серия.mpg
Формат : MPEG-PS
Размер файла : 1,70 Гбайт
Продолжительность : 44 м.
Режим общего битрейта : Переменный
Общий поток : 5442 Кбит/сек
Библиотека кодирования : (c) 1998-2012 Womble Multimedia, Inc. / MPEG Video Wizard DVD 5.0.1.100 (03/2011) / Sep 7 2012
Видео
Идентификатор : 224 (0xE0)
Формат : MPEG Video
Версия формата : Version 2
Профиль формата : [email protected]
Параметр BVOP формата : Да
Параметр матрицы формата : Выборочная
Параметр GOP формата : Variable
Продолжительность : 44 м.
Вид битрейта : Переменный
Битрейт : 5141 Кбит/сек
Максимальный битрейт : 15,0 Мбит/сек
Ширина : 720 пикселей
Высота : 576 пикселей
Соотношение сторон : 4:3
Частота кадров : 25,000 кадров/сек
Стандарт вещания : PAL
Цветовое пространство : YUV
Субдискретизация насыщенности : 4:2:0
Битовая глубина : 8 бит
Тип развёртки : Чересстрочная
Порядок развёртки : Верхнее поле первое
Метод сжатия : С потерями
Бит/(Пиксели*Кадры) : 0.496
TimeCode_FirstFrame : 00:00:00:00
TimeCode_Source : Group of pictures header
Размер потока : 1,60 Гбайт (94%)
Библиотека кодирования : (c) 1998-2012 Womble Multimedia, Inc. / MPEG Video Wizard DVD 5.0.1.100 (03/2011) / Sep 7 2012
Аудио
Идентификатор : 192 (0xC0)
Формат : MPEG Audio
Версия формата : Version 1
Профиль формата : Layer 2
Продолжительность : 44 м.
Вид битрейта : Постоянный
Битрейт : 192 Кбит/сек
Каналы : 2 канала
Частота : 48,0 КГц
Метод сжатия : С потерями
Задержка видео : -40 мс.
Размер потока : 61,3 Мбайт (4%)
Скриншоты:
Other forum [Profile] [PM]
Display posts from previous:    
Reply to topic

The time now is: Today 00:18

All times are GMT + 3 Hours



You cannot post new topics in this forum
You cannot reply to topics in this forum
You cannot edit your posts in this forum
You cannot delete your posts in this forum
You cannot vote in polls in this forum
You cannot attach files in this forum
You cannot download files in this forum