Today is a free download without charge Download

Лоре / Lore ( Кейт Шортланд ) (2012, Триллер, Драма, Военный ) BDRip [720p] [Ge / EN Sub]

Reply to topic
 
Author
Message

Витек1 ®

Gender:

Longevity: 8 years 3 months

Posts: 451

Location: Житомир

Торрент-статистика

Post 12-Mar-2013 13:01

[Quote]

Лоре / Lore - Русское название: Лоре
Оригинальное название: Lore
Год выпуска: 2012
Жанр: Триллер, Драма, Военный
Описание фильма:
Обращаясь к событиям 1945 года в Германии, когда страну захватывают войска союзников, фильм Кейт Шортланд «Лоре» (Lore) знакомит своих зрителей с девочкой-подростком, которая выросла в твердых убеждениях национал-социализма, навязанных ее родителями. Война близится к концу, ее родителей арестовывают, и девочка остается вместе с ее четырьмя младшими братьями и сестрами. В отчаянии она рассказывает им, будто бы их мама и папа уехали к бабушке, чтобы спрятаться, и теперь ждут их там.
Дети отправляются в дальнюю поездку из Баварии в Гамбург, где живет их бабушка. Поскольку все поезда конфискованы оккупационными властями, а у детей к тому же нет документов, они вынуждены идти пешком, через поля, леса и реки. Это непростое путешествие приведет в итоге к тому, что в детском сознании героев кинокартины «Лоре» произойдет переворот, и они по-новому посмотрят на такие вещи, как семья, любовь и дружба.
Режиссер: Кейт Шортланд
Актеры: Саския Розендаль, Неле Требс, Мика Сидел, Кай-Петер Малина, Урсина Ларди, Ханс-Йохен Вагнер, Свен Пиппиг, Филип Виграц
Продолжительность: 01:44:50
Перевод: Отсутствует
Язык: Немецкий
Язык субтитров: Английскиe
Вид субтитров: Вшитые, неотключаемые

Видеокодек: MPEG-4 AVC/H.264
Битрейт видео: ~4 441 Kbps
Размер кадра: 1280x688
Качество видео: BDRip
Аудиокодек: DTS : 6 channels
Битрейт аудио: 1 510 Kbps
Сэмпл: Ссылка

Screenlist

 

MediaInfo

Lore.720p.mkv
Format : Matroska
Format version : Version 2
File size : 4.35 GiB
Duration : 1h 44mn
Overall bit rate : 5 944 Kbps
Encoded date : UTC 2013-03-08 12:10:29
Writing application : mkvmerge v4.6.0 ('Still Crazy After All These Years') built on Mar 10 2011 02:50:32
Writing library : libebml v1.2.0 + libmatroska v1.1.0
Video
ID : 1
Format : AVC
Format/Info : Advanced Video Codec
Format profile : [url=mailto:[email protected]][email protected][/url]
Format settings, CABAC : Yes
Format settings, ReFrames : 5 frames
Muxing mode : Header stripping
Codec ID : V_MPEG4/ISO/AVC
Duration : 1h 44mn
Bit rate : 4 441 Kbps
Width : 1 280 pixels
Height : 688 pixels
Display aspect ratio : 1.85:1
Frame rate : 25.000 fps
Color space : YUV
Chroma subsampling : 4:2:0
Bit depth : 8 bits
Scan type : Progressive
Bits/(Pixel*Frame) : 0.202
Stream size : 3.16 GiB (73%)
Writing library : x264 core 129 r2245 bc13772
Encoding settings : cabac=1 / ref=5 / deblock=1:0:0 / analyse=0x3:0x133 / me=umh / subme=8 / psy=1 / psy_rd=1.00:0.00 / mixed_ref=1 / me_range=16 / chroma_me=1 / trellis=1 / 8x8dct=1 / cqm=0 / deadzone=21,11 / fast_pskip=0 / chroma_qp_offset=-2 / threads=12 / lookahead_threads=2 / sliced_threads=0 / nr=0 / decimate=1 / interlaced=0 / bluray_compat=0 / constrained_intra=0 / bframes=3 / b_pyramid=2 / b_adapt=1 / b_bias=0 / direct=1 / weightb=1 / open_gop=0 / weightp=2 / keyint=250 / keyint_min=25 / scenecut=40 / intra_refresh=0 / rc_lookahead=40 / rc=2pass / mbtree=1 / bitrate=4441 / ratetol=1.0 / qcomp=0.60 / qpmin=0 / qpmax=69 / qpstep=4 / cplxblur=20.0 / qblur=0.5 / ip_ratio=1.40 / aq=1:1.00
Language : English
Default : Yes
Forced : No
Audio
ID : 2
Format : DTS
Format/Info : Digital Theater Systems
Muxing mode : Header stripping
Codec ID : A_DTS
Duration : 1h 44mn
Bit rate mode : Constant
Bit rate : 1 510 Kbps
Channel(s) : 6 channels
Channel positions : Front: L C R, Side: L R, LFE
Sampling rate : 48.0 KHz
Bit depth : 16 bits
Compression mode : Lossy
Stream size : 1.11 GiB (25%)
Default : Yes
Forced : No

Скриншоты

       

_________________
Скачал сам, дай скачать другому!!!Не забудь сказать -
Other forum [Profile] [PM]
Display posts from previous:    
Reply to topic

The time now is: Today 02:05

All times are GMT + 3 Hours



You cannot post new topics in this forum
You cannot reply to topics in this forum
You cannot edit your posts in this forum
You cannot delete your posts in this forum
You cannot vote in polls in this forum
You cannot attach files in this forum
You cannot download files in this forum