Today is a free download without charge Download

Вероника. Беглянка / Серии: 1-4 из 16 (Андрей Селиванов) [2013, Мелодрама, SATRip]

Reply to topic
 
Author
Message

Omen ®

Longevity: 9 years

Posts: 181086

Торрент-статистика

Post 12-Mar-2013 12:53

[Quote]

Вероника. Беглянка
Год выпуска: 2013
Производство: Россия
Жанр: Мелодрама
Продолжительность: 4х ~ 00:45:00
Субтитры: нет
Режиссёр: Андрей Селиванов
В ролях: Наталья Бардо, Александр Дьяченко, Сергей Жигунов, Амаду Мамадаков, Сергей Астахов, Олег Алмазов, Игорь Седов, Денис Бургазлиев, Михаил Слесарев, Екатерина Данилова (II), Алина Кизиярова, Шухрат Иргашев, Гурам Баблишвили, Анна Литкенс, Александр Макаров, Николай Аверюшкин, Денис Сердюков, Венчислав Хотяновский, Юрий Грубник, Ольга Волкова, Мария Машкова, Дарья Чаруша, Владимир Шульга, Борис Клюев, Ольга (Ляля) Жемчужная, Фархад Махмудов, Анастасия Веселкина, Динара Примова, Ирина Бразговка, Александр Вдовин, Марина Вайнбранд, Екатерина Жемчужная
Описание: История Вероники продолжается. Потеряв любимого мужа, героиня остается беззащитной перед бандитами, охотившимися за бесценным научным открытием ее отца. Единственный путь к спасению – передать информацию ученику отца, живущему в Польше.
Скрываясь от бандитов, Вероника отправляется в Краков в фургоне дальнобойщика, везущего через границу мебель. Однако роковое стечение обстоятельств рушит все планы: Вероника вынуждена бежать, не добравшись до места назначения, и, что самое страшное, у девушки крадут блокнот отца, который она везла в Польшу...
Сэмпл
Качество: SATRip
Формат: AVI
Видео кодек: XviD
Аудио кодек: MP3
Видео: 720x400 (1.80:1), 25 fps, XviD build 50 ~1520 kbps avg, 0.21 bit/pixel
Аудио: 48 kHz, MPEG Layer 3, 2 ch, ~192.00 kbps avg
Релиз от:

MI

General
Complete name : V:\ftp4\Videos\Veronika.Beglyanka.2013.XviD.SATRip.Files-x\Veronika.Beglyanka.01.seriya.2013.XviD.SATRip.Files-x.avi
Format : AVI
Format/Info : Audio Video Interleave
File size : 550 MiB
Duration : 44mn 38s
Overall bit rate : 1 723 Kbps
Writing application : VirtualDubMod 1.5.10.3 | www.virtualdub-fr.org || (build 2550/release)
Writing library : VirtualDubMod build 2550/release
Video
ID : 0
Format : MPEG-4 Visual
Format profile : Advanced [email protected]
Format settings, BVOP : 1
Format settings, QPel : No
Format settings, GMC : No warppoints
Format settings, Matrix : Default (H.263)
Codec ID : XVID
Codec ID/Hint : XviD
Duration : 44mn 38s
Bit rate : 1 521 Kbps
Width : 720 pixels
Height : 400 pixels
Display aspect ratio : 16:9
Frame rate : 25.000 fps
Color space : YUV
Chroma subsampling : 4:2:0
Bit depth : 8 bits
Scan type : Progressive
Compression mode : Lossy
Bits/(Pixel*Frame) : 0.211
Stream size : 486 MiB (88%)
Writing library : XviD 1.2.1 (UTC 2008-12-04)
Audio
ID : 1
Format : MPEG Audio
Format version : Version 1
Format profile : Layer 3
Codec ID : 55
Codec ID/Hint : MP3
Duration : 44mn 38s
Bit rate mode : Constant
Bit rate : 192 Kbps
Channel(s) : 2 channels
Sampling rate : 48.0 KHz
Compression mode : Lossy
Stream size : 61.3 MiB (11%)
Alignment : Aligned on interleaves
Interleave, duration : 40 ms (1.00 video frame)
Interleave, preload duration : 504 ms
Writing library : LAME3.98r
Encoding settings : -m s -V 4 -q 2 -lowpass 18.6 -b 192

Скриншоты

Раздача ведется путем добавления новых серий

Внимание! Раздача ведётся путём добавления новых серий; при каждом добавлении создётся новый торрент. Чтобы начать докачку новой серии, пользователям необходимо сделать следующее:
(1) остановить скачивание,
(2) удалить старый торрент у себя из клиента (старые серии удалять не надо),
(3) скачать новый торрент и запустить его у себя в клиенте вместо старого, при этом указать клиенту путь в старую папку куда и должно происходить скачивание новых серий.
Ваш клиент при этом должен произвести хеширование (проверку) старой папки (если не производит сам - помогите ему сделать это), и будет докачивать только те серии которых у вас ещё нет. Старые серии при этом не удаляются, а продолжают раздаваться!
Eсли вы уже удалили старые серии, то предотвратить повторную закачку старых серий можно, отжав галочку в соответствующих местах при запуске нового торрента.
Other forum [Profile] [PM]
Display posts from previous:    
Reply to topic

The time now is: Today 18:33

All times are GMT + 3 Hours



You cannot post new topics in this forum
You cannot reply to topics in this forum
You cannot edit your posts in this forum
You cannot delete your posts in this forum
You cannot vote in polls in this forum
You cannot attach files in this forum
You cannot download files in this forum