Today is a free download without charge Download

Вячеслав Бутусов - 50! Юбилейный концерт (20.10.2011) [2013 г., Rock, HDTVRip, 720p]

Reply to topic
 
Author
Message

Omen ®

Longevity: 8 years 3 months

Posts: 181087

Торрент-статистика

Post 12-Mar-2013 12:53

[Quote]

Вячеслав Бутусов - 50! Юбилейный концерт (20.10.2011)
Страна: Россия
Жанр: Rock
Продолжительность: 01:33:50
Год выпуска: 2013 г.
Описание: Творчество Вячеслава Бутусова всегда было востребовано. И в лихие годы перестройки, когда у целого поколения сменились жизненные ориентиры и приоритеты; и уже в нынешнем столетии, когда все узнали Бутусова как творца, способного быть тонким лириком и романтиком.
Его главные песни не утратили свою злободневность и острую социальность и по сей день, поэтому так интересны самой активной и молодой аудитории. "Шар цвета хаки", "Хлоп-Хлоп", "Скованные одной цепью" - разве это не актуально в наши дни?... А фильм "БРАТ" Алексея Балабанова, музыка к которому полностью состоит из песен и саунд-треков Вячеслава? Фильм, ставший не просто культовым, а поистине народным. Его песни знают и поют миллионы.
К праздничному выступлению Вячеслав Бутусов приготовил уникальную программу, в которую будут включены все шедевры непотопляемого "Наутилуса", а также лучшее из новейшей романтики "Ю-Питера". А самое главное – нас ждёт оригинальное звучание главных песен "Нау", как это было 20 лет назад.
Вячеслав Бутусов: "В творчестве все должно быть исключительно по наитию и без каких-либо корыстных целей. Сколько раз я ни пытался внушить себе и другим, что сейчас сделаю нечто восхитительное, - ничего не получалось. Такие вещи происходят сами по себе, то есть свыше".

Треклист

1.Бриллиантовые дороги
2.Ален Делон(Взгляд с экрана)
3.Титаник(+А.Макаревич)
4.Песня идущего домой
5.Девушка по городу(К.Бутусова)
6.Прогулки по воде(Калинов Мост)
7.Негорькая слеза
8.Казанова(СерьГа)
9.Вселенская
10.Терновник(+А.Эстоева)
11.Скованные одной цепью(Г.Сукачёв,Лицедеи)
12.Крылья
13.Тутанхамон(+В.Самойлов)
14.Шар цвета хаки(+В.Самойлов,Лицедеи)
15.Хлоп-Хлоп(+В.Самойлов,Лицедеи)
16.Моя звезда(+А.Ф.Скляр)
17.Дыхание
18.Прощальное письмо(+Все гости)
Качество: HDTVRip 720p
Контейнер: MKV
Видео кодек: H.264
Аудио кодек: AC3
Видео: AVC at 5237 Кбит/сек, 1280 x 720 (1.778) at 25.000 fps
Аудио: AC-3 at 384 Кбит/сек, 2 канала, 48,0 КГц

Скриншоты

MI+log

Общее
Уникальный идентификатор : 194701842841337125104483612548666839964 (0x927A35FFDF4C91C992069B8649F5539C)
Полное имя : E:\kodirovany\Вячеслав Бутусов - 50! Юбилейный концерт (20.10.2011) HDTVRip 720p Doc66.mkv
Формат : Matroska
Версия формата : Version 2
Размер файла : 3,76 Гбайт
Продолжительность : 1 ч. 33 м.
Общий поток : 5735 Кбит/сек
Дата кодирования : UTC 2013-03-11 20:31:47
Программа кодирования : mkvmerge v5.8.0 ('No Sleep / Pillow') built on Sep 2 2012 15:37:04
Библиотека кодирования : libebml v1.2.3 + libmatroska v1.3.0
Видео
Идентификатор : 1
Формат : AVC
Формат/Информация : Advanced Video Codec
Профиль формата : [email protected]
Параметр CABAC формата : Да
Параметр ReFrames формата : 8 кадров
Идентификатор кодека : V_MPEG4/ISO/AVC
Продолжительность : 1 ч. 33 м.
Битрейт : 5237 Кбит/сек
Ширина : 1280 пикселей
Высота : 720 пикселей
Соотношение сторон : 16:9
Режим частоты кадров : Постоянный
Частота кадров : 25,000 кадров/сек
Цветовое пространство : YUV
Субдискретизация насыщенности : 4:2:0
Битовая глубина : 8 бит
Тип развёртки : Прогрессивная
Бит/(Пиксели*Кадры) : 0.227
Размер потока : 3,44 Гбайт (91%)
Библиотека кодирования : x264 core 125 r2208 d9d2288
Настройки программы : cabac=1 / ref=8 / deblock=1:-3:-3 / analyse=0x3:0x113 / me=umh / subme=9 / psy=1 / psy_rd=1.00:0.15 / mixed_ref=1 / me_range=24 / chroma_me=1 / trellis=2 / 8x8dct=1 / cqm=0 / deadzone=21,11 / fast_pskip=1 / chroma_qp_offset=-3 / threads=6 / lookahead_threads=1 / sliced_threads=0 / nr=0 / decimate=1 / interlaced=0 / bluray_compat=0 / constrained_intra=0 / bframes=8 / b_pyramid=2 / b_adapt=2 / b_bias=0 / direct=1 / weightb=1 / open_gop=0 / weightp=2 / keyint=250 / keyint_min=25 / scenecut=40 / intra_refresh=0 / rc_lookahead=60 / rc=crf / mbtree=0 / crf=19.5 / qcomp=0.60 / qpmin=0 / qpmax=69 / qpstep=4 / vbv_maxrate=20000 / vbv_bufsize=25000 / crf_max=0.0 / nal_hrd=none / ip_ratio=1.40 / pb_ratio=1.30 / aq=2:0.80
Default : Да
Forced : Нет
Основные цвета : BT.709
Характеристики трансфера : BT.709
Коэффициенты матрицы : BT.709
Аудио
Идентификатор : 2
Формат : AC-3
Формат/Информация : Audio Coding 3
Расширение режима : CM (complete main)
Параметр Endianness формата : Big
Идентификатор кодека : A_AC3
Продолжительность : 1 ч. 33 м.
Вид битрейта : Постоянный
Битрейт : 384 Кбит/сек
Каналы : 2 канала
Расположение каналов : Front: L R
Частота : 48,0 КГц
Битовая глубина : 16 бит
Метод сжатия : С потерями
Размер потока : 258 Мбайт (7%)
Default : Да
Forced : Нет
Меню
00:00:00.000 : ru:Intro
00:01:46.050 : ru:Бриллиантовые дороги
00:07:51.050 : ru:Взгляд с экрана
00:12:44.050 : ru:Титаник
00:17:35.050 : ru:Песня идущего домой
00:21:52.050 : ru:Девушка по городу
00:25:19.050 : ru:Прогулки по воде
00:31:56.050 : ru:Негорькая слеза
00:36:21.050 : ru:Казанова
00:42:39.050 : ru:Вселенская
00:46:54.050 : ru:Терновник
00:50:23.050 : ru:Скованные одной цепью
00:56:17.050 : ru:Крылья
01:00:49.050 : ru:Тутанхамон
01:06:19.050 : ru:Шар цвета хаки
01:10:46.050 : ru:Хлоп-Хлоп
01:14:33.050 : ru:Моя звезда
01:23:00.050 : ru:Дыхание
01:29:25.050 : ru:Прощальное письмо
====================================================
x264 [info]: frame I:1234 Avg QP:18.02 size:103414
x264 [info]: frame P:32394 Avg QP:19.21 size: 47937
x264 [info]: frame B:107264 Avg QP:21.83 size: 19461
x264 [info]: consecutive B-frames: 2.6% 2.7% 10.0% 23.7% 17.7% 39.8% 2.7% 0.6% 0.3%
x264 [info]: mb I I16..4: 14.3% 69.0% 16.7%
x264 [info]: mb P I16..4: 7.9% 22.8% 2.5% P16..4: 36.1% 16.3% 9.4% 0.0% 0.0% skip: 5.0%
x264 [info]: mb B I16..4: 0.8% 2.1% 0.4% B16..8: 34.2% 8.4% 2.4% direct:13.1% skip:38.5% L0:38.5% L1:45.5% BI:16.0%
x264 [info]: 8x8 transform intra:67.8% inter:64.6%
x264 [info]: coded y,uvDC,uvAC intra: 65.2% 88.6% 66.4% inter: 27.9% 43.1% 12.9%
x264 [info]: i16 v,h,dc,p: 43% 18% 10% 29%
x264 [info]: i8 v,h,dc,ddl,ddr,vr,hd,vl,hu: 12% 11% 8% 8% 12% 12% 12% 11% 14%
x264 [info]: i4 v,h,dc,ddl,ddr,vr,hd,vl,hu: 12% 14% 4% 8% 13% 12% 12% 10% 14%
x264 [info]: i8c dc,h,v,p: 38% 24% 19% 19%
x264 [info]: Weighted P-Frames: Y:12.6% UV:10.5%
x264 [info]: ref P L0: 48.8% 8.5% 19.3% 6.8% 5.7% 4.0% 3.8% 2.5% 0.5% 0.1%
x264 [info]: ref B L0: 83.7% 9.1% 3.2% 1.7% 1.1% 0.7% 0.4%
x264 [info]: ref B L1: 95.7% 4.3%
x264 [info]: kb/s:5348.74
x264 [total]: encoded 140892 frames, 4.76 fps, 5348.74 kb/s
Other forum [Profile] [PM]
Display posts from previous:    
Reply to topic

The time now is: Today 23:28

All times are GMT + 3 Hours



You cannot post new topics in this forum
You cannot reply to topics in this forum
You cannot edit your posts in this forum
You cannot delete your posts in this forum
You cannot vote in polls in this forum
You cannot attach files in this forum
You cannot download files in this forum