Today is a free download without charge Download

В зоне риска [1 серии из 16] (2012) SATRip [Обновляемая]

Reply to topic
 
Author
Message

UndegraundMen ®

Longevity: 8 years 9 months

Posts: 25145

Торрент-статистика

Post 12-Mar-2013 02:36

[Quote]

В зоне риска [1 серии из 16] (2012) SATRip [Обновляемая]- Русское название: В зоне риска
Выпущено: Россия
Год выпуска: 2012
Жанр: Криминальный фильм, Боевик
Перевод: Оригинал (Русский)
Субтитры: Отсутствуют
kinopoisk
Режиссер: Владимир Котт
Актеры: Евгений Сидихин, Алексей Кравченко, Наталья Рычкова, Юрий Борисов, Александра Тюфтей, Александр Кудинов, Анна Якунина, Дарья Чаруша, Роман Индык, Олег Чернов, Андрей Карасевич, Никита Емшанов, Рауль Ганеев, Владимир Денисов, Павел Исайкин, Эдуард Рябинин, Николай Точилин, Марк Богатырёв, Людмила Марьянова, Михаил Калгин, Александр Глинский, Сергей Коваленко, Никита Татаренков, Ильдар Аллабирдин, Мария Букнис, Алексей Овсянников, Николай Дроздовский, Иван Машнин, Надежда Борисова, Александр Ревенко, Юрий Оленников, Алексей Ярмилко, Сергей Беляев, Даниил Кокин, Роман Гредин, Сергей Мещеряков, Николай Маликов, Евгений Бакалов, Алексей Свиридов, Павел Капитонов, Стас Наумов, Сергей Наумов, Галина Виноградова, Марина Коняшкина, Олег Демидов, Александр Сергеев, Геннадий Егоров, Александра Живова, Игорь Жуковский, Софья Урицкая, Михаил Руденко, Лариса Солонинова, Ирина Гавра, Дмитрий Готсдинер, Тимофей Трибунцев, Алла Будницкая, Станислав Костецкий, Александр Макаров, Михаил Соловьев, Всеволод Быков, Руслан Жигунов, Роман Павлушев, Дмитрий Титов, Александр Шаляпин, Виктор Хориняк, Антон Сёмкин, Андрей Харыбин, Андрей Бронников, Полина Сидихина, Юрий Тарасов
Описание фильма:
Оперативнику Сергею Демидову поручают возглавить новую команду. Своенравный Вадим Непогода - отличный оперативник и смельчак, способный в любой ситуации протянуть руку помощи, прикрыть спину. Марина Говорнова - в прошлом профессиональная биатлонистка, мастерски стреляет из многих видов оружия. К тому же выясняется, что у нее - дар переговорщика. "Желторотик" Денис Тавардин отлично разбирается в компьютерах и становится "техническим гением" команды...
В каждой серии группа Демидова получает новое задание и приступает к розыску преступника или преступников, сбежавших из-под стражи. Это убийцы, налетчики, мошенники. Они бегут и из мест заключения, и во время этапа, и из психиатрических клиник, и прямо из зала суда... Команда работает отлично и ловит беглецов. Однако Демидова мучает подозрение, что кто-то в команде "крот" и предатель...
Продолжительность: 1 х ~ 00:45:01 серия
Качество видео: SATRip
Видеокодек: XviD
Битрейт видео: ~1415 Kbit/s
Размер кадра: 720 x 416
Аудиокодек: MP3, 2.0
Битрейт аудио: 128 Kbit/sВнимание! Раздача ведётся путём добавления новых серий

Внимание! Раздача ведётся путём добавления новых серий. Описание обновления торрента.

Внимание! Раздача ведётся путём добавления новых серий; при каждом добавлении создётся новый торрент. Чтобы начать докачку новой серии, пользователям необходимо сделать следующее:
(1) остановить скачивание,
(2) удалить старый торрент у себя из клиента (старые серии удалять не надо),
(3) скачать новый торрент и запустить его у себя в клиенте вместо старого, при этом указать клиенту путь в старую папку куда и должно происходить скачивание новых серий.
Ваш клиент при этом должен произвести хеширование (проверку) старой папки (если не производит сам - помогите ему сделать это), и будет докачивать только те серии которых у вас ещё нет. Старые серии при этом не удаляются, а продолжают раздаваться!
Eсли вы уже удалили старые серии, то предотвратить повторную закачку старых серий можно, отжав галочку в соответсвующих местах при запуске нового торрента. По возможности, желательно не удалять старые серии как можно дольше чтобы релизёр не столько продолжал раздавать старые серии, а смог сконцентрироваться на новых.

MediaInfo

Общее
Полное имя : D:\Торренты\В зоне риска. 2012. SATRip\В зоне риска.01.avi
Формат : AVI
Формат/Информация : Audio Video Interleave
Размер файла : 500 Мбайт
Продолжительность : 45 м.
Общий поток : 1553 Кбит/сек
Программа кодирования : VirtualDubMod 1.5.10.2 (build 2540/release)
Библиотека кодирования : VirtualDubMod build 2540/release
Видео
Идентификатор : 0
Формат : MPEG-4 Visual
Профиль формата : Advanced [email protected]
Параметр BVOP формата : 2
Параметр QPel формата : Нет
Параметр GMC формата : Без точки перехода
Параметр матрицы формата : Default (MPEG)
Идентификатор кодека : XVID
Идентификатор кодека/Подсказка : XviD
Продолжительность : 45 м.
Битрейт : 1415 Кбит/сек
Ширина : 720 пикс.
Высота : 416 пикс.
Соотношение сторон : 16:9
Частота кадров : 25,000 кадр/сек
Цветовое пространство : YUV
Подвыборка цветности : 4:2:0
Битовая глубина : 8 бит
Тип развёртки : Прогрессивная
Метод сжатия : С потерями
Бит/(Пиксели*Кадры) : 0.189
Размер потока : 456 Мбайт (91%)
Библиотека кодирования : XviD 65
Аудио
Идентификатор : 1
Формат : MPEG Audio
Версия формата : Version 1
Профиль формата : Layer 3
Режим : Joint stereo
Расширение режима : MS Stereo
Идентификатор кодека : 55
Идентификатор кодека/Подсказка : MP3
Продолжительность : 45 м.
Вид битрейта : Постоянный
Битрейт : 128 Кбит/сек
Каналы : 2 канала
Частота : 48,0 КГц
Метод сжатия : С потерями
Размер потока : 41,2 Мбайт (8%)
Выравнивание : Соединение по промежуткам
Продолжительность промежутка : 40 мс. (1,00 видеокадр)
Время предзагрузки промежутка : 504 ms
Скриншоты:
           
Время раздачи: 24/7 по возможности
Other forum [Profile] [PM]
Display posts from previous:    
Reply to topic

The time now is: Today 18:10

All times are GMT + 3 Hours



You cannot post new topics in this forum
You cannot reply to topics in this forum
You cannot edit your posts in this forum
You cannot delete your posts in this forum
You cannot vote in polls in this forum
You cannot attach files in this forum
You cannot download files in this forum