Today is a free download without charge Download

Сваты 6 / Сезон: 6 Серии: 1 из 16 (Андрей Яковлев, Эдуард Радзюкевич) [2013, Комедия, DVB]

Reply to topic
 
Author
Message

Omen ®

Longevity: 9 years

Posts: 181086

Торрент-статистика

Post 12-Mar-2013 00:46

[Quote]

Сваты 6
Год выпуска: 2013
Производство: «Студия Квартал-95», телеканал «1+1»
Жанр: Комедия
Продолжительность: ~ 00:45:00
Режиссёр: Андрей Яковлев, Эдуард Радзюкевич
В ролях: Фёдор Добронравов, Татьяна Кравченко, Людмила Артемьева, Анна Кошмал, Александр Феклистов, Анна Полищук, Костя Чернокрылюк, Олеся Железняк, Николай Добрынин, Владимир Зельдин, Ольга Аросева, Даниил Белых, Инна Королёва, Эммануил Виторган, Елена Сафонова, Роман Лукьянов, Евгений Капорин, Фёдор Гуринец, Алексей Смолка, Денис Шепотинник, Татьяна Васильева, Мария Кочур, Екатерина Варченко
Описание: Фильм повествует о том, как человеческая судьба может резко измениться и расколоть счастье двух влюбленных людей накануне свадьбы. Главной героине придется пережить все тяготы жизни, чтобы отстоять свою жизнь и помочь близким людям.
Релиз от: &
Раздача от группы:
Семпл: http://multi-up.com/841790
Качество: DVB (Amos 2/3 at 4.0°W)
Формат: MPEG
Видео кодек: MPEG2
Аудио кодек: MPEG1 Layer 2
Видео: MPEG2 Video 720x576 (4:3) 25.00fps ~4 600 Kbps, 0.432 bit/pixel
Аудио: MPEG Audio 48000Hz 2 channel 256 Кбит/сек

MI

Общее
Полное имя 01_seriya_DVB_Files-x_RG Serialy.mpg
Формат : MPEG-PS
Размер файла : 1,65 Гбайт
Продолжительность : 47 м.
Режим общего битрейта : Переменный
Общий поток : 4971 Кбит/сек
Библиотека кодирования : (c) 1998-2010 Womble Multimedia, Inc. / MPEG Video Wizard DVD 5.0.0.114 (01/2010) / Nov 13 2010
Видео
Идентификатор : 224 (0xE0)
Формат : MPEG Video
Версия формата : Version 2
Профиль формата : [email protected]
Параметр BVOP формата : Да
Параметр матрицы формата : Выборочная
Параметр GOP формата : Variable
Продолжительность : 47 м.
Вид битрейта : Переменный
Битрейт : 4636 Кбит/сек
Ширина : 720 пикселей
Высота : 576 пикселей
Соотношение сторон : 4:3
Частота кадров : 25,000 кадров/сек
Стандарт вещания : PAL
Цветовое пространство : YUV
Субдискретизация насыщенности : 4:2:0
Битовая глубина : 8 бит
Тип развёртки : Чересстрочная
Порядок развёртки : Верхнее поле первое
Метод сжатия : С потерями
Бит/(Пиксели*Кадры) : 0.447
TimeCode_FirstFrame : 00:00:00:00
TimeCode_Source : Group of pictures header
Размер потока : 1,54 Гбайт (93%)
Библиотека кодирования : (c) 1998-2010 Womble Multimedia, Inc. / MPEG Video Wizard DVD 5.0.0.114 (01/2010) / Nov 13 2010
Аудио
Идентификатор : 192 (0xC0)
Формат : MPEG Audio
Версия формата : Version 1
Профиль формата : Layer 2
Продолжительность : 47 м.
Вид битрейта : Постоянный
Битрейт : 256 Кбит/сек
Каналы : 2 канала
Частота : 48,0 КГц
Метод сжатия : С потерями
Размер потока : 87,2 Мбайт (5%)

Скриншоты

Внимание! Раздача ведётся путём добавления новых серий!!!

Внимание! Раздача ведётся путём добавления новых серий; при каждом добавлении создаётся новый торрент.
Чтобы начать докачку новой серии, пользователям необходимо сделать следующее:
1) остановить скачивание
2) удалить старый торрент у себя из клиента (старые серии удалять не надо)
3) скачать новый торрент и запустить его у себя в клиенте вместо старого, при этом указать клиенту путь в старую папку куда и должно происходить скачивание новых серий.
Ваш клиент при этом должен произвести хеширование (проверку) старой папки (если не производит сам - помогите ему сделать это), и будет докачивать только те серии которых у вас ещё нет. Старые серии при этом не удаляются, а продолжают раздаваться!
Eсли вы уже удалили старые серии, то предотвратить повторную закачку старых серий можно, отжав галочку в соответствовавших местах при запуске нового торрента.

Добавлена 2-я серия,
Заменена 2-я серия (приклеены титры в конце серии)!!!
Папка переименована под правильное кол-во серий в сериале!!!
Приятного просмотра!!!
Other forum [Profile] [PM]
Display posts from previous:    
Reply to topic

The time now is: Today 16:55

All times are GMT + 3 Hours



You cannot post new topics in this forum
You cannot reply to topics in this forum
You cannot edit your posts in this forum
You cannot delete your posts in this forum
You cannot vote in polls in this forum
You cannot attach files in this forum
You cannot download files in this forum