Today is a free download without charge Download

Уравнение любви / Серии: 01-02 из 08 (Рауф Кубаев) [2013, Мелодрама, HDTV, 1080i]

Reply to topic
 
Author
Message

Omen ®

Longevity: 9 years

Posts: 181086

Торрент-статистика

Post 12-Mar-2013 00:46

[Quote]

Уравнение любви
Год выпуска: 2013
Производство: "Русские золотые серии"
Жанр: Мелодрама
Продолжительность: ~ 00:45:00
Субтитры: Отсутствуют
Режиссёр: Рауф Кубаев
В ролях: Наталия Антонова, Александр Робак, Дмитрий Муляр, Екатерина Волкова, Александр Зельский, Евгения Туркова, Иван Соловьев, Анастасия Пронина, Галина Петрова, Вадим Андреев, и другие.
Описание: Размеренная, устоявшаяся жизнь Татьяны Сергеевой - заботливой жены и мамы, работающей воспитательницей в детском саду, резко меняется. Ее сын Денис сбивает на дороге девушку и уезжает с места происшествия. Денис не хочет садиться в тюрьму: у него скоро свадьба и защита диплома. Таня принимает непростое решение и берет вину сына на себя. И теперь и ее жизнь, и жизнь ее близких подвергается нелегким испытаниям – испытаниям верности, любви, дружбы. Теперь каждый должен доказать, способен ли он остаться человеком в чрезвычайных обстоятельствах.
Сэмпл: http://multi-up.com/841796
Доп. информация: Релиз -

Рип чистый. Без посторонних надписей. Выкладывается как есть.
Качество: HDTV 1080i
Контейнер: TS
Видео кодек: AVC
Аудио кодек: AC3
Видео: 1920x1080 (16:9) 25.000 fps 7 838 Kbps, 0.151 bit/pixel
Аудио 1: MPEG Audio 48000Hz stereo 192 Кбит/сек
Аудио 2: AC3 384 Kbps, 2 channels

Скриншоты


MI

GeneralID : 1 (0x1)Complete name : N:\ВЫКЛАДКА\HDTV\Сериалы\Уравнение любви (2013, Мелодрама, HDTV) (MYDIMKA)\01 серия.tsFormat : MPEG-TSFile size : 2.97 GiBDuration : 47mn 59sOverall bit rate mode : VariableOverall bit rate : 8 867 Kbps
VideoID : 2931 (0xB73)Menu ID : 1 (0x1)Format : AVCFormat/Info : Advanced Video CodecFormat profile : [email protected] settings, CABAC : YesFormat settings, ReFrames : 3 framesFormat settings, GOP : M=3, N=30Codec ID : 27Duration : 47mn 59sBit rate : 7 847 KbpsWidth : 1 920 pixelsHeight : 1 080 pixelsDisplay aspect ratio : 16:9Frame rate : 25.000 fpsColor space : YUVChroma subsampling : 4:2:0Bit depth : 8 bitsScan type : MBAFFBits/(Pixel*Frame) : 0.151Stream size : 2.63 GiB (88%)
Audio #1ID : 2932 (0xB74)Menu ID : 1 (0x1)Format : MPEG AudioFormat version : Version 1Format profile : Layer 2Codec ID : 3Duration : 47mn 59sBit rate mode : ConstantBit rate : 192 KbpsChannel(s) : 2 channelsSampling rate : 48.0 KHzCompression mode : LossyStream size : 65.9 MiB (2%)Language : Russian
Audio #2ID : 2933 (0xB75)Menu ID : 1 (0x1)Format : AC-3Format/Info : Audio Coding 3Mode extension : CM (complete main)Format settings, Endianness : BigCodec ID : 129Duration : 47mn 59sBit rate mode : ConstantBit rate : 384 KbpsChannel(s) : 2 channelsChannel positions : Front: L RSampling rate : 48.0 KHzBit depth : 16 bitsCompression mode : LossyStream size : 132 MiB (4%)Language : Russian

Внимание! Раздача ведётся путём добавления новых выпусков

Внимание! Раздача ведётся путём добавления новых выпусков; при каждом добавлении создётся новый торрент. Чтобы начать докачку нового выпуска, пользователям необходимо сделать следующее:
(1) остановить скачивание,
(2) удалить старый торрент у себя из клиента (старые выпуски удалять не надо),
(3) скачать новый торрент и запустить его у себя в клиенте вместо старого, при этом указать клиенту путь в старую папку куда и должно происходить скачивание новых выпусков.
Ваш клиент при этом должен произвести хеширование (проверку) старой папки (если не производит сам - помогите ему сделать это), и будет докачивать только те выпуски которых у вас ещё нет. Старые выпуски при этом не удаляются, а продолжают раздаваться!
Eсли вы уже удалили старые выпуски, то предотвратить повторную закачку старых выпусков можно, отжав галочку в соответсвующих местах при запуске нового торрента. По возможности, желательно не удалять старые выпуски как можно дольше чтобы релизёр не столько продолжал раздавать старые выпуски, а смог сконцентрироваться на новых.
Other forum [Profile] [PM]
Display posts from previous:    
Reply to topic

The time now is: Today 17:20

All times are GMT + 3 Hours



You cannot post new topics in this forum
You cannot reply to topics in this forum
You cannot edit your posts in this forum
You cannot delete your posts in this forum
You cannot vote in polls in this forum
You cannot attach files in this forum
You cannot download files in this forum