Today is a free download without charge Download

Уравнение со всеми / Уравнение любви / Серии: 1 из 8 (Рауф Кубаев) [2012, Мелодрама, HDTVRip]

Reply to topic
 
Author
Message

Omen ®

Longevity: 9 years 1 month

Posts: 181086

Торрент-статистика

Post 12-Mar-2013 00:46

[Quote]

Уравнение со всеми / Уравнение любви
Год выпуска: 2012
Производство: Россия, Всемирные Русские Студии (RWS)
Жанр: Мелодрама
Продолжительность: 2х ~ 00:45:00
Субтитры: нет
Режиссёр: Рауф Кубаев
В ролях: Наталия Антонова, Дмитрий Муляр, Екатерина Волкова, Галина Петрова, Вадим Андреев, Иван Соловьев (II), Александр Робак, Павел Юлку, Евгения Туркова, Анастасия Пронина, Александр Зельский, Анна Бачалова
Описание: Всю свою жизнь Татьяна посвятила мужу и сыну Денису. Именно поэтому, когда накануне своей свадьбы сын, выпив, садится за руль и сбивает человека, Татьяна, не задумываясь, берет его вину на себя и по приговору суда оказывается в колонии-поселении. Муж и сын Татьяны воспринимают ее поступок как должное. Свадьба Дениса проходит без Татьяны. Непривычная к тяжелому физическому труду и барачному быту, в тюрьме Татьяна становится объектом насмешек и издевательств. Выжить Татьяне помогает только дружеская поддержка Аркадия – единственного осужденного, кто решился встать на ее защиту. Муж и сын Татьяны озабочены только своими бытовыми проблемами и, казалось, забыли о матери... А Татьяна начинает понимать, что не хочет возвращаться домой, боится снова встретиться с эгоизмом мужа и инфантильностью сына, и… уже не представляет свою жизнь без Аркадия. Но выбор Татьяне придется сделать раньше срока - неожиданно Татьяна узнает о своем условно-досрочном освобождении…
Сэмпл
Качество: HDTVRip
Формат: AVI
Видео кодек: XviD
Аудио кодек: АС3
Видео:720x400 (1.80:1), 25 fps, XviD build 50 ~1571 kbps avg, 0.22 bit/pixel
Аудио:48 kHz, AC3 Dolby Digital, 2/0 (L,R) ch, ~192.00 kbps avg
Релиз от:

MI

General
Complete name : V:\ftp4\Videos\Уравнение.любви.01.серия..2013.XviD.HDTVRip.Files-x.avi
Format : AVI
Format/Info : Audio Video Interleave
File size : 601 MiB
Duration : 47mn 21s
Overall bit rate : 1 774 Kbps
Writing application : VirtualDubMod 1.5.10.3 | www.virtualdub-fr.org || (build 2550/release)
Writing library : VirtualDubMod build 2550/release
Video
ID : 0
Format : MPEG-4 Visual
Format profile : Advanced [email protected]
Format settings, BVOP : 1
Format settings, QPel : No
Format settings, GMC : No warppoints
Format settings, Matrix : Default (H.263)
Codec ID : XVID
Codec ID/Hint : XviD
Duration : 47mn 21s
Bit rate : 1 572 Kbps
Width : 720 pixels
Height : 400 pixels
Display aspect ratio : 16:9
Frame rate : 25.000 fps
Color space : YUV
Chroma subsampling : 4:2:0
Bit depth : 8 bits
Scan type : Progressive
Compression mode : Lossy
Bits/(Pixel*Frame) : 0.218
Stream size : 532 MiB (89%)
Writing library : XviD 1.2.1 (UTC 2008-12-04)
Audio
ID : 1
Format : AC-3
Format/Info : Audio Coding 3
Mode extension : CM (complete main)
Format settings, Endianness : Big
Codec ID : 2000
Duration : 47mn 21s
Bit rate mode : Constant
Bit rate : 192 Kbps
Channel(s) : 2 channels
Channel positions : Front: L R
Sampling rate : 48.0 KHz
Bit depth : 16 bits
Compression mode : Lossy
Stream size : 65.0 MiB (11%)
Alignment : Split accross interleaves
Interleave, duration : 40 ms (1.00 video frame)
Interleave, preload duration : 500 ms

Скриншоты

Раздача ведется путем добавления новых серий

Внимание! Раздача ведётся путём добавления новых серий; при каждом добавлении создётся новый торрент. Чтобы начать докачку новой серии, пользователям необходимо сделать следующее:
(1) остановить скачивание,
(2) удалить старый торрент у себя из клиента (старые серии удалять не надо),
(3) скачать новый торрент и запустить его у себя в клиенте вместо старого, при этом указать клиенту путь в старую папку куда и должно происходить скачивание новых серий.
Ваш клиент при этом должен произвести хеширование (проверку) старой папки (если не производит сам - помогите ему сделать это), и будет докачивать только те серии которых у вас ещё нет. Старые серии при этом не удаляются, а продолжают раздаваться!
Eсли вы уже удалили старые серии, то предотвратить повторную закачку старых серий можно, отжав галочку в соответствующих местах при запуске нового торрента.
Other forum [Profile] [PM]
Display posts from previous:    
Reply to topic

The time now is: Today 06:21

All times are GMT + 3 Hours



You cannot post new topics in this forum
You cannot reply to topics in this forum
You cannot edit your posts in this forum
You cannot delete your posts in this forum
You cannot vote in polls in this forum
You cannot attach files in this forum
You cannot download files in this forum