Today is a free download without charge Download

Торговый центр / Серии: 1 из 60 (Игорь Войтулевич, Сергей Краснов, Сергей Пищиков) [2013, Мелодрама, HDTVRip]

Reply to topic
 
Author
Message

Omen ®

Longevity: 9 years

Posts: 181086

Торрент-статистика

Post 12-Mar-2013 00:46

[Quote]

Торговый центр Год выпуска: 2013
Производство: ООО "Красный квадрат"
Жанр: Мелодрама
Продолжительность: ~ 00:45:00
Режиссёр: Игорь Войтулевич, Сергей Краснов, Сергей Пищиков
В ролях: Валерия Ланская (Елена Новикова), Сергей Жигунов (Эдуард Фадеев), Евгений Пронин (Олег Корнеев), Екатерина Кузнецова (Анна Фадеева), Андрей Казаков (Сергей Белецкий), Ксения Лаврова-Глинка (Марина Белецкая), Юрий Батурин (Игорь Белецкий), Анатолий Дзиваев (Ованес Маркарян) и другие.
Описание: Торговый центр – настоящее сердце любого современного города. Там всегда кипит жизнь – тысячи покупателей, десятки продавцов. Это еще и место для отдыха, развлечений и даже романтических свиданий. Но мало кто знает, какие страсти кипят там изо дня в день, какие тайны скрываются за табличками "Служебное помещение" и "Только для персонала" и на что толкают обитателей этих стен любовь, власть и деньги. На фоне жизни крупного торгового центра "Астория" в Ярославле, владельцем которого является бизнесмен Эдуард Фадеев, разворачиваются главные события и переплетаются истории взаимоотношений нескольких семей.
Исходник: mydimka
Рип: Мосенька
Качество: HDTVRip
Контейнер: AVI
Видео кодек: XviD
Аудио кодек: MP3
Видео: 720x400 (16/9), 25.000 fps, 1 418 Kbps (0.197 bit/pixel)
Аудио : 48.0 KHz, 2 ch, 128 Kbps

Скриншоты



MI

ОбщееПолное имя : I:\РАЗДАЧИ НА TORRENTS.RU\Торговый центр.2013.HDTVRip\Torgovyj.Centr.01.HDTVRip./*spam*/.aviФормат : AVIФормат/Информация : Audio Video InterleaveРазмер файла : 500 МбайтПродолжительность : 44 м.Общий поток : 1555 Кбит/секПрограмма кодирования : VirtualDubMod 1.5.10.3 | www.virtualdub-fr.org || (build 2550/release)Библиотека кодирования : VirtualDubMod build 2550/release
ВидеоИдентификатор : 0Формат : MPEG-4 VisualПрофиль формата : Advanced [email protected]Параметр BVOP формата : 1Параметр QPel формата : НетПараметр GMC формата : Без точки переходаПараметр матрицы формата : ВыборочнаяИдентификатор кодека : XVIDИдентификатор кодека/Подсказка : XviDПродолжительность : 44 м.Битрейт : 1418 Кбит/секШирина : 720 пикселейВысота : 400 пикселейСоотношение сторон : 16:9Частота кадров : 25,000 кадров/секЦветовое пространство : YUVСубдискретизация насыщенности : 4:2:0Битовая глубина : 8 битТип развёртки : ПрогрессивнаяМетод сжатия : С потерямиБит/(Пиксели*Кадры) : 0.197Размер потока : 456 Мбайт (91%)Библиотека кодирования : XviD 63
АудиоИдентификатор : 1Формат : MPEG AudioВерсия формата : Version 1Профиль формата : Layer 3Режим : Joint stereoРасширение режима : MS StereoИдентификатор кодека : 55Идентификатор кодека/Подсказка : MP3Продолжительность : 44 м.Вид битрейта : ПостоянныйБитрейт : 128 Кбит/секКаналы : 2 каналаЧастота : 48,0 КГцМетод сжатия : С потерямиРазмер потока : 41,1 Мбайт (8%)Выравнивание : Соединение по промежуткамПродолжительность промежутка : 40 мс. (1,00 видеокадр)Время предзагрузки промежутка : 504 мс.

Внимание! Раздача ведётся путём добавления новых выпусков

Внимание! Раздача ведётся путём добавления новых выпусков; при каждом добавлении создётся новый торрент. Чтобы начать докачку нового выпуска, пользователям необходимо сделать следующее:
(1) остановить скачивание,
(2) удалить старый торрент у себя из клиента (старые выпуски удалять не надо),
(3) скачать новый торрент и запустить его у себя в клиенте вместо старого, при этом указать клиенту путь в старую папку куда и должно происходить скачивание новых выпусков.
Ваш клиент при этом должен произвести хеширование (проверку) старой папки (если не производит сам - помогите ему сделать это), и будет докачивать только те выпуски которых у вас ещё нет. Старые выпуски при этом не удаляются, а продолжают раздаваться!
Eсли вы уже удалили старые выпуски, то предотвратить повторную закачку старых выпусков можно, отжав галочку в соответсвующих местах при запуске нового торрента. По возможности, желательно не удалять старые выпуски как можно дольше чтобы релизёр не столько продолжал раздавать старые выпуски, а смог сконцентрироваться на новых.
Other forum [Profile] [PM]
Display posts from previous:    
Reply to topic

The time now is: Today 18:32

All times are GMT + 3 Hours



You cannot post new topics in this forum
You cannot reply to topics in this forum
You cannot edit your posts in this forum
You cannot delete your posts in this forum
You cannot vote in polls in this forum
You cannot attach files in this forum
You cannot download files in this forum