Today is a free download without charge Download

Самара / Серии: 01-02 из 14 (Станислав Дремов) [2012, Мелодрама, HDTV 1080i]

Reply to topic
 
Author
Message

Omen ®

Longevity: 9 years 1 month

Posts: 181086

Торрент-статистика

Post 12-Mar-2013 00:46

[Quote]

Самара
Год выпуска: 2012
Производство: Всемирные русские студии
Жанр: Мелодрама
Продолжительность: ~ 00:45:00
Субтитры: Отсутствуют
Режиссёр: Станислав Дремов
В ролях: Артур Смольянинов, Ольга Арнтгольц, Леонид Громов, Полина Филоненко, Евгения Добровольская, Владимир Симонов, Юрий Батурин, Ёла Санько, Эвелина Блёданс, Луиза-Габриэла Бровина, Елена Коллегова, Александра Морозова, Оксана Семенова, Ольга Дибцева, Виктор Хатеновский, Дарина Фаддеева, Геннадий Матвеев, Серафима Низовская, Максим Фролов, Александр Кузьмин, Алиса Супрун и другие.
Описание: Главный герой сериала – врач «Скорой помощи» Олег Самарин. Друзья и коллеги зовут его Самара. Бунтарь и выскочка, он спорит с начальством, отпускает шуточки в адрес коллег и пациентов, нарушает все правила и уставы! Но Самаре все сходит с рук. Он – хирург от Бога! Каждый день Самара со своей бригадой (фельдшером Леной и водителем Михалычем) помогает людям. Пациенты Олега – это пестрая галерея характеров и судеб и порой Самаре приходится лечить не только их тела, но и души. Но и самому Самаре есть что скрывать… У Самары есть тайна, раскрытие которой грозит ему потерей любимой работы. Но, как говорится, все тайное когда-нибудь становится явным…
Сэмпл: http://multi-up.com/841716
Доп. информация: Релиз -

Рип чистый (Прямой поток). Без посторонних надписей. Выкладывается как есть.
Качество: HDTV 1080i
Контейнер: TS
Видео кодек: AVC
Аудио кодек: AC3
Видео: 1920x1080 (16:9) 25.000 fps 7 856 Kbps, 0.151 bit/pixel
Аудио: MPEG Audio 48000Hz stereo 192 Кбит/сек

Скриншоты


MI

GeneralID : 1 (0x1)Complete name : N:\ВЫКЛАДКА\HDTV\Сериалы\Самара (2012, Мелодрама, HDTV) (MYDIMKA)\01 серия.tsFormat : MPEG-TSFile size : 2.58 GiBDuration : 43mn 44sOverall bit rate mode : VariableOverall bit rate : 8 449 Kbps
VideoID : 2911 (0xB5F)Menu ID : 1 (0x1)Format : AVCFormat/Info : Advanced Video CodecFormat profile : [email protected] settings, CABAC : YesFormat settings, ReFrames : 3 framesCodec ID : 27Duration : 43mn 44sBit rate : 7 838 KbpsWidth : 1 920 pixelsHeight : 1 080 pixelsDisplay aspect ratio : 16:9Frame rate : 25.000 fpsColor space : YUVChroma subsampling : 4:2:0Bit depth : 8 bitsScan type : MBAFFBits/(Pixel*Frame) : 0.151Stream size : 2.39 GiB (93%)
AudioID : 2912 (0xB60)Menu ID : 1 (0x1)Format : MPEG AudioFormat version : Version 1Format profile : Layer 2Mode : Joint stereoMode extension : Intensity Stereo + MS StereoCodec ID : 3Duration : 43mn 44sBit rate mode : ConstantBit rate : 192 KbpsChannel(s) : 2 channelsSampling rate : 48.0 KHzCompression mode : LossyStream size : 60.1 MiB (2%)Language : Russian

Внимание! Раздача ведётся путём добавления новых выпусков

Внимание! Раздача ведётся путём добавления новых выпусков; при каждом добавлении создётся новый торрент. Чтобы начать докачку нового выпуска, пользователям необходимо сделать следующее:
(1) остановить скачивание,
(2) удалить старый торрент у себя из клиента (старые выпуски удалять не надо),
(3) скачать новый торрент и запустить его у себя в клиенте вместо старого, при этом указать клиенту путь в старую папку куда и должно происходить скачивание новых выпусков.
Ваш клиент при этом должен произвести хеширование (проверку) старой папки (если не производит сам - помогите ему сделать это), и будет докачивать только те выпуски которых у вас ещё нет. Старые выпуски при этом не удаляются, а продолжают раздаваться!
Eсли вы уже удалили старые выпуски, то предотвратить повторную закачку старых выпусков можно, отжав галочку в соответсвующих местах при запуске нового торрента. По возможности, желательно не удалять старые выпуски как можно дольше чтобы релизёр не столько продолжал раздавать старые выпуски, а смог сконцентрироваться на новых.
Other forum [Profile] [PM]
Display posts from previous:    
Reply to topic

The time now is: Today 22:41

All times are GMT + 3 Hours



You cannot post new topics in this forum
You cannot reply to topics in this forum
You cannot edit your posts in this forum
You cannot delete your posts in this forum
You cannot vote in polls in this forum
You cannot attach files in this forum
You cannot download files in this forum