Today is a free download without charge Download

Одесса-мама / Серии: 1-12 из 12 (Марк Горобец) [2012, Детектив, HDTVRip 720p]

Reply to topic
 
Author
Message

Omen ®

Longevity: 9 years

Posts: 181086

Торрент-статистика

Post 12-Mar-2013 00:46

[Quote]

Одесса-мама
Год выпуска: 2012
Производство: ООО «Украинская Продакшн Студия»
Жанр: Детектив
Продолжительность: ~00:42:00
Режиссёр: Марк Горобец
В ролях: Дмитрий Дюжев, Екатерина Гусева, Эвклид Кюрдзидис, Светлана Устинова, Ольга Смирнова, Агния Кузнецова, Пётр Фёдоров, Александр Алябьев, Михаил Тарабукин, Александр Доронин, Тимофей Трибунцев, Константин Косинский, Станислав Боклан, Олеся Жураковская, Сергей Калантай
Описание: Главный герой фильма - прокурор Андрей Чебанов (Дмитрий Дюжев), которому предстоит навести в приморском городке порядок. Действие происходит в течение нескольких летних месяцев 1969 года, когда в городе убивают местного "крестного отца". В Одессу приезжает кавказский авторитет Дато (Эвклид Кюрдзидис), чтобы установить там нового "смотрящего" - руководителя преступного мира и хранителя бандитского общака.

Качество: HDTVRip 720p
Формат: MKV
Видео кодек: H.264
Аудио кодек: MPEG Audio
Видео: x264, 1280 х 720 (16:9), 25,000 кадр/сек, ~ 2749 Кбит/сек
Аудио: MPEG Audio 48000Hz stereo 192 Кбит/сек
Сторонней рекламы нет!

MediaInfo

ОбщееУникальный идентификатор : 213467372432228806438451328992836827503 (0xA098520A6EC05138AA4A340D1BB7B96F)Полное имя : G:\ФИЛЬМЫ\Одесса-мама HDTVRip 720p\Одесса_мама 01_серия_HDTVRip_720 p_by_Серый1779.mkvФормат : MatroskaВерсия формата : Version 2Размер файла : 879 МбайтПродолжительность : 41 м.Общий поток : 2943 Кбит/секДата кодирования : UTC 2013-03-08 04:11:38Программа кодирования : mkvmerge v5.6.0 ('Kenya Kane') built on Jun 29 2012 15:01:44Библиотека кодирования : libebml v1.2.3 + libmatroska v1.3.0
ВидеоИдентификатор : 1Формат : AVCФормат/Информация : Advanced Video CodecПрофиль формата : [email protected]Параметр CABAC формата : ДаПараметр ReFrames формата : 9 кадровИдентификатор кодека : V_MPEG4/ISO/AVCПродолжительность : 41 м.Битрейт : 2693 Кбит/секШирина : 1280 пикселейВысота : 720 пикселейСоотношение сторон : 16:9Режим частоты кадров : ПостоянныйЧастота кадров : 25,000 кадров/секЦветовое пространство : YUVСубдискретизация насыщенности : 4:2:0Битовая глубина : 8 битТип развёртки : ПрогрессивнаяБит/(Пиксели*Кадры) : 0.117Размер потока : 804 Мбайт (91%)Библиотека кодирования : x264 core 125 r2200 999b753Настройки программы : cabac=1 / ref=9 / deblock=1:-2:-2 / analyse=0x3:0x133 / me=umh / subme=9 / psy=1 / psy_rd=1.10:0.15 / mixed_ref=1 / me_range=32 / chroma_me=1 / trellis=2 / 8x8dct=1 / cqm=0 / deadzone=21,11 / fast_pskip=0 / chroma_qp_offset=-3 / threads=3 / lookahead_threads=1 / sliced_threads=0 / nr=0 / decimate=1 / interlaced=0 / bluray_compat=0 / constrained_intra=0 / bframes=9 / b_pyramid=2 / b_adapt=2 / b_bias=0 / direct=1 / weightb=1 / open_gop=0 / weightp=2 / keyint=250 / keyint_min=25 / scenecut=40 / intra_refresh=0 / rc=crf / mbtree=0 / crf=20.0 / qcomp=0.60 / qpmin=0 / qpmax=69 / qpstep=4 / ip_ratio=1.40 / pb_ratio=1.30 / aq=2:0.80Default : ДаForced : НетОсновные цвета : BT.601 PALХарактеристики трансфера : BT.470 System B, BT.470 System GКоэффициенты матрицы : BT.601
АудиоИдентификатор : 2Формат : MPEG AudioВерсия формата : Version 1Профиль формата : Layer 2Идентификатор кодека : A_MPEG/L2Идентификатор кодека/Подсказка : MP2Продолжительность : 41 м.Вид битрейта : ПостоянныйБитрейт : 192 Кбит/секКаналы : 2 каналаЧастота : 48,0 КГцМетод сжатия : С потерямиРазмер потока : 57,3 Мбайт (7%)Default : ДаForced : Нет

h264 log

x264 [info]: frame I:393 Avg QP:18.76 size: 79730x264 [info]: frame P:14466 Avg QP:20.27 size: 28426x264 [info]: frame B:47768 Avg QP:22.59 size: 8759x264 [info]: consecutive B-frames: 1.0% 1.4% 5.5% 53.2% 15.9% 21.1% 1.1% 0.6% 0.2% 0.1%x264 [info]: mb I I16..4: 8.3% 79.4% 12.3%x264 [info]: mb P I16..4: 1.8% 11.2% 1.5% P16..4: 51.9% 15.4% 12.6% 0.5% 0.1% skip: 4.9%x264 [info]: mb B I16..4: 0.1% 1.0% 0.2% B16..8: 38.6% 6.6% 1.6% direct: 4.9% skip:47.1% L0:38.6% L1:48.3% BI:13.1%x264 [info]: 8x8 transform intra:77.2% inter:70.2%x264 [info]: coded y,uvDC,uvAC intra: 82.3% 70.1% 34.2% inter: 19.1% 18.0% 0.7%x264 [info]: i16 v,h,dc,p: 26% 22% 7% 45%x264 [info]: i8 v,h,dc,ddl,ddr,vr,hd,vl,hu: 12% 16% 4% 7% 11% 12% 13% 11% 14%x264 [info]: i4 v,h,dc,ddl,ddr,vr,hd,vl,hu: 9% 18% 2% 6% 12% 12% 16% 9% 16%x264 [info]: i8c dc,h,v,p: 37% 29% 20% 14%x264 [info]: Weighted P-Frames: Y:4.2% UV:1.8%x264 [info]: ref P L0: 47.6% 14.1% 18.7% 5.1% 4.6% 3.1% 3.1% 1.6% 1.8% 0.2% 0.0%x264 [info]: ref B L0: 86.0% 7.6% 2.6% 1.3% 0.9% 0.8% 0.5% 0.3%x264 [info]: ref B L1: 96.5% 3.5%x264 [info]: kb/s:2749.53
x264 [total]: encoded 62627 frames, 2.39 fps, 2749.53 kb/s
Отдельное спасибо mydimka за предоставление исходника.

Внимание ! Раздача ведётся путём добавления новых серий

Внимание! Раздача ведётся путём добавления новых серий; при каждом добавлении создётся новый торрент. Чтобы начать докачку новой серии, пользователям необходимо сделать следующее:
(1) остановить скачивание,
(2) удалить старый торрент у себя из клиента (старые серии удалять не надо),
(3) скачать новый торрент и запустить его у себя в клиенте вместо старого, при этом указать клиенту путь в старую папку куда и должно происходить скачивание новых серий.
Ваш клиент при этом должен произвести хеширование (проверку) старой папки (если не производит сам - помогите ему сделать это), и будет докачивать только те серии которых у вас ещё нет. Старые серии при этом не удаляются, а продолжают раздаваться!
Eсли вы уже удалили старые серии, то предотвратить повторную закачку старых серий можно, отжав галочку в соответсвующих местах при запуске нового торрента. По возможности, желательно не удалять старые серии как можно дольше чтобы релизёр не столько продолжал раздавать старые серии, а смог сконцентрироваться на новых.
ВНИМАНИЕ! ТОРРЕНТ ПЕРЕЗАЛИТ! ДОБАВЛЕНА 12-ая СЕРИИ!

Скриншоты

Other forum [Profile] [PM]
Display posts from previous:    
Reply to topic

The time now is: Today 18:11

All times are GMT + 3 Hours



You cannot post new topics in this forum
You cannot reply to topics in this forum
You cannot edit your posts in this forum
You cannot delete your posts in this forum
You cannot vote in polls in this forum
You cannot attach files in this forum
You cannot download files in this forum