Today is a free download without charge Download

Nick Cave And The Bad Seeds — Jubilee Street [2013, alternative rock, HDTV 1080i]

Reply to topic
 
Author
Message

Omen ®

Longevity: 8 years 4 months

Posts: 181087

Торрент-статистика

Post 12-Mar-2013 00:46

[Quote]

Nick Cave And The Bad Seeds — Jubilee Street- Жанр: alternative rock
Продолжительность: 00:04:40
Год выпуска: 2013
Качество: HDTV 1080i
Контейнер: TS
Видео кодек: H.264
Аудио кодек: AC3
Видео: H.264; 1920x1080; 9 010 Kbps ; 25.000 fps
Аудио: AC-3; 384 Kbps; 48.0 KHz; 2 ch
Аудио 2: AC-3; 256 Kbps; 48.0 KHz; 2 ch

Отчёт MediaInfo

Complete name : Nick Cave And The Bad Seeds — Jubilee Street.tsFormat : MPEG-TSFile size : 340 MiBDuration : 4mn 40sOverall bit rate mode : VariableOverall bit rate : 10.2 Mbps
VideoID : 561 (0x231)Menu ID : 306 (0x132)Format : AVCFormat/Info : Advanced Video CodecFormat profile : [email protected] settings, CABAC : YesFormat settings, ReFrames : 3 framesCodec ID : 27Duration : 4mn 40sBit rate : 9 010 KbpsWidth : 1 920 pixelsHeight : 1 080 pixelsDisplay aspect ratio : 16:9Frame rate : 25.000 fpsStandard : ComponentColor space : YUVChroma subsampling : 4:2:0Bit depth : 8 bitsScan type : InterlacedScan order : Top Field FirstBits/(Pixel*Frame) : 0.174Stream size : 301 MiB (89%)Color primaries : BT.601 PALTransfer characteristics : BT.470 System B, BT.470 System GMatrix coefficients : BT.601
Audio #1ID : 562 (0x232)Menu ID : 306 (0x132)Format : AC-3Format/Info : Audio Coding 3Mode extension : CM (complete main)Format settings, Endianness : BigCodec ID : 6Duration : 4mn 40sBit rate mode : ConstantBit rate : 384 KbpsChannel(s) : 2 channelsChannel positions : Front: L RSampling rate : 48.0 KHzBit depth : 16 bitsCompression mode : LossyDelay relative to video : 24msStream size : 12.8 MiB (4%)Language : French
Audio #2ID : 563 (0x233)Menu ID : 306 (0x132)Format : AC-3Format/Info : Audio Coding 3Mode extension : CM (complete main)Format settings, Endianness : BigCodec ID : 6Duration : 4mn 40sBit rate mode : ConstantBit rate : 256 KbpsChannel(s) : 2 channelsChannel positions : Front: L RSampling rate : 48.0 KHzBit depth : 16 bitsCompression mode : LossyDelay relative to video : 120msStream size : 8.56 MiB (3%)Language : qaa

Скриншоты

Other forum [Profile] [PM]
Display posts from previous:    
Reply to topic

The time now is: Today 06:33

All times are GMT + 3 Hours



You cannot post new topics in this forum
You cannot reply to topics in this forum
You cannot edit your posts in this forum
You cannot delete your posts in this forum
You cannot vote in polls in this forum
You cannot attach files in this forum
You cannot download files in this forum