Today is a free download without charge Download

Учитель в законе. Возвращение [1-4 серии из 32] (2012) SATRip [Обновляемая]

Reply to topic
 
Author
Message

UndegraundMen ®

Longevity: 8 years 9 months

Posts: 25145

Торрент-статистика

Post 11-Mar-2013 23:02

[Quote]

Учитель в законе. Возвращение [1-4 серии из 32] (2012) SATRip [Обновляемая]- Русское название: Учитель в законе. Возвращение
Выпущено: Россия, Мостелефильм по заказу НТВ
Год выпуска: 2012
Жанр: Боевик, Драма, Криминал
Перевод: Оригинал (Русский)
Субтитры: Отсутствуют
kinopoisk Сэмпл:
Режиссер: Сергей Виноградов, Рустам Уразаев
Актеры: Юрий Беляев, Михаил Горевой, Александр Кузнецов, Сергей Векслер, Всеволод Николаев, Кристина Бабушкина, Наталия Антонова, Константин Желдин, Георгий Пицхелаури, Владимир Стеклов, Олеся Судзиловская, Дмитрий Янышевский
Описание фильма:
Год прошел быстро и почти не заметно. Семья Богомоловых, а это отец и сын, живут в городе Солнечный своей спокойной размеренной жизнью. Ваня учится в школе, Борис Аркадьевич руководит приютом для детей, которых жизнь изрядно потрепала. Свою фамилию оставили прежней, так как бывший вор в законе по кличке Богомол завязал со своим прошлым и теперь живёт спокойной жизнью не нарушая закон. Но от своего прошлого ещё никому не удавалось уйти. В городе Солнечный был произведён рейдерский захват ювелирного завода. Директора завода расстреляли пряно на проходной и как на грех это произошло сразу после встречи с Богомолом. Сразу завертелось колесо следствия, спустили всех собак на Богомолова, потому что он стал подозреваемым номер один, да ещё с таким бандитским прошлым. Удастся ли Борису Андреевичу доказать свою невиновность?
Продолжительность: 4 х ~ 00:43:00 серия
Качество видео: SATRip
Видеокодек: Xvid
Битрейт видео: ~1495 Kbit/s
Размер кадра: 720 х 400
Аудиокодек: MP3, 2.0
Битрейт аудио: 128 Kbit/sВнимание! Раздача ведётся путём добавления новых серий

Внимание! Раздача ведётся путём добавления новых серий. Описание обновления торрента.

Внимание! Раздача ведётся путём добавления новых серий; при каждом добавлении создётся новый торрент. Чтобы начать докачку новой серии, пользователям необходимо сделать следующее:
(1) остановить скачивание,
(2) удалить старый торрент у себя из клиента (старые серии удалять не надо),
(3) скачать новый торрент и запустить его у себя в клиенте вместо старого, при этом указать клиенту путь в старую папку куда и должно происходить скачивание новых серий.
Ваш клиент при этом должен произвести хеширование (проверку) старой папки (если не производит сам - помогите ему сделать это), и будет докачивать только те серии которых у вас ещё нет. Старые серии при этом не удаляются, а продолжают раздаваться!
Eсли вы уже удалили старые серии, то предотвратить повторную закачку старых серий можно, отжав галочку в соответсвующих местах при запуске нового торрента. По возможности, желательно не удалять старые серии как можно дольше чтобы релизёр не столько продолжал раздавать старые серии, а смог сконцентрироваться на новых.

MediaInfo

Общее
Полное имя : D:\Торренты\Учитель в законе. Возвращение. 2012. SATRip\Учитель в законе.3. 04.avi
Формат : AVI
Формат/Информация : Audio Video Interleave
Размер файла : 504 Мбайт
Продолжительность : 43 м.
Общий поток : 1633 Кбит/сек
Библиотека кодирования : VirtualDub build 32507/release
Видео
Идентификатор : 0
Формат : MPEG-4 Visual
Профиль формата : Advanced [email protected]
Параметр BVOP формата : 2
Параметр QPel формата : Нет
Параметр GMC формата : Без точки перехода
Параметр матрицы формата : Default (MPEG)
Идентификатор кодека : XVID
Идентификатор кодека/Подсказка : XviD
Продолжительность : 43 м.
Битрейт : 1495 Кбит/сек
Ширина : 720 пикс.
Высота : 400 пикс.
Соотношение сторон : 16:9
Частота кадров : 25,000 кадр/сек
Цветовое пространство : YUV
Подвыборка цветности : 4:2:0
Битовая глубина : 8 бит
Тип развёртки : Прогрессивная
Метод сжатия : С потерями
Бит/(Пиксели*Кадры) : 0.208
Размер потока : 461 Мбайт (92%)
Библиотека кодирования : XviD 1.2.1 (UTC 2008-12-04)
Аудио
Идентификатор : 1
Формат : MPEG Audio
Версия формата : Version 1
Профиль формата : Layer 3
Режим : Joint stereo
Расширение режима : MS Stereo
Идентификатор кодека : 55
Идентификатор кодека/Подсказка : MP3
Продолжительность : 43 м.
Вид битрейта : Постоянный
Битрейт : 128 Кбит/сек
Каналы : 2 канала
Частота : 48,0 КГц
Метод сжатия : С потерями
Размер потока : 39,5 Мбайт (8%)
Выравнивание : Разделение по промежуткам
Продолжительность промежутка : 40 мс. (1,00 видеокадр)
Время предзагрузки промежутка : 500 ms
Скриншоты:
       
       Время раздачи: 24/7 по возможности
Other forum [Profile] [PM]
Display posts from previous:    
Reply to topic

The time now is: Today 05:40

All times are GMT + 3 Hours



You cannot post new topics in this forum
You cannot reply to topics in this forum
You cannot edit your posts in this forum
You cannot delete your posts in this forum
You cannot vote in polls in this forum
You cannot attach files in this forum
You cannot download files in this forum