Today is a free download without charge Download

Уравнение со всеми [1-2 серии из 8] (2012) SATRip [Обновляемая]

Reply to topic
 
Author
Message

UndegraundMen ®

Longevity: 8 years 9 months

Posts: 25145

Торрент-статистика

Post 11-Mar-2013 23:02

[Quote]

Уравнение со всеми [1-2 серии из 8] (2012) SATRip [Обновляемая]- Русское название: Уравнение со всеми
Выпущено: Россия
Год выпуска: 2012
Жанр: Мелодрама
Перевод: Оригинал (Русский)
Субтитры: Отсутствуют
kinopoisk Сэмпл:
Режиссер: Рауф Кубаев
Актеры: Наталия Антонова, Дмитрий Муляр, Екатерина Волкова, Галина Петрова, Вадим Андреев, Иван Соловьев (II), Александр Робак, Павел Юлку, Евгения Туркова, Анастасия Пронина, Александр Зельский, Анна Бачалова
Описание фильма:
Всю свою жизнь Татьяна посвятила мужу и сыну Денису. Именно поэтому, когда накануне своей свадьбы сын, выпив, садится за руль и сбивает человека, Татьяна, не задумываясь, берет его вину на себя и по приговору суда оказывается в колонии-поселении. Муж и сын Татьяны воспринимают ее поступок как должное. Свадьба Дениса проходит без Татьяны. Непривычная к тяжелому физическому труду и барачному быту, в тюрьме Татьяна становится объектом насмешек и издевательств. Выжить Татьяне помогает только дружеская поддержка Аркадия – единственного осужденного, кто решился встать на ее защиту. Муж и сын Татьяны озабочены только своими бытовыми проблемами и, казалось, забыли о матери... А Татьяна начинает понимать, что не хочет возвращаться домой, боится снова встретиться с эгоизмом мужа и инфантильностью сына, и… уже не представляет свою жизнь без Аркадия. Но выбор Татьяне придется сделать раньше срока - неожиданно Татьяна узнает о своем условно-досрочном освобождении…
Продолжительность: 2 х ~ 00:47:00 серия
Качество видео: SATRip
Видеокодек: DivX 5
Битрейт видео: ~1573 Kbit/s
Размер кадра: 704 х 400
Аудиокодек: MP3, 2.0
Битрейт аудио: 128 Kbit/sВнимание! Раздача ведётся путём добавления новых серий

Внимание! Раздача ведётся путём добавления новых серий. Описание обновления торрента.

Внимание! Раздача ведётся путём добавления новых серий; при каждом добавлении создётся новый торрент. Чтобы начать докачку новой серии, пользователям необходимо сделать следующее:
(1) остановить скачивание,
(2) удалить старый торрент у себя из клиента (старые серии удалять не надо),
(3) скачать новый торрент и запустить его у себя в клиенте вместо старого, при этом указать клиенту путь в старую папку куда и должно происходить скачивание новых серий.
Ваш клиент при этом должен произвести хеширование (проверку) старой папки (если не производит сам - помогите ему сделать это), и будет докачивать только те серии которых у вас ещё нет. Старые серии при этом не удаляются, а продолжают раздаваться!
Eсли вы уже удалили старые серии, то предотвратить повторную закачку старых серий можно, отжав галочку в соответсвующих местах при запуске нового торрента. По возможности, желательно не удалять старые серии как можно дольше чтобы релизёр не столько продолжал раздавать старые серии, а смог сконцентрироваться на новых.

MediaInfo

Общее
Полное имя : D:\Торренты\Уравнение со всеми. 2012. SATRip\Уравнение со всеми.01.avi
Формат : AVI
Формат/Информация : Audio Video Interleave
Размер файла : 587 Мбайт
Продолжительность : 47 м.
Общий поток : 1711 Кбит/сек
Библиотека кодирования : VirtualDub-MPEG2 build 24600/release
Видео
Идентификатор : 0
Формат : MPEG-4 Visual
Профиль формата : [email protected]
Параметр BVOP формата : Нет
Параметр QPel формата : Нет
Параметр GMC формата : Без точки перехода
Параметр матрицы формата : Default (H.263)
Идентификатор кодека : DX50
Идентификатор кодека/Подсказка : DivX 5
Продолжительность : 47 м.
Битрейт : 1573 Кбит/сек
Ширина : 704 пикс.
Высота : 400 пикс.
Соотношение сторон : 16:9
Частота кадров : 25,000 кадр/сек
Цветовое пространство : YUV
Подвыборка цветности : 4:2:0
Битовая глубина : 8 бит
Тип развёртки : Прогрессивная
Метод сжатия : С потерями
Бит/(Пиксели*Кадры) : 0.223
Размер потока : 540 Мбайт (92%)
Библиотека кодирования : XviD 1.2.1 (UTC 2008-12-04)
Аудио
Идентификатор : 1
Формат : MPEG Audio
Версия формата : Version 1
Профиль формата : Layer 3
Режим : Joint stereo
Расширение режима : MS Stereo
Идентификатор кодека : 55
Идентификатор кодека/Подсказка : MP3
Продолжительность : 47 м.
Вид битрейта : Постоянный
Битрейт : 128 Кбит/сек
Каналы : 2 канала
Частота : 48,0 КГц
Метод сжатия : С потерями
Размер потока : 43,9 Мбайт (7%)
Выравнивание : Разделение по промежуткам
Продолжительность промежутка : 40 мс. (1,00 видеокадр)
Время предзагрузки промежутка : 500 ms
Библиотека кодирования : LAME3.98.2
Скриншоты:
           
Время раздачи: 24/7 по возможности
Other forum [Profile] [PM]
Display posts from previous:    
Reply to topic

The time now is: Today 22:48

All times are GMT + 3 Hours



You cannot post new topics in this forum
You cannot reply to topics in this forum
You cannot edit your posts in this forum
You cannot delete your posts in this forum
You cannot vote in polls in this forum
You cannot attach files in this forum
You cannot download files in this forum