Today is a free download without charge Download

Вероника. Беглянка [1 серии из 16] (2013) SATRip [Обновляемая]

Reply to topic
 
Author
Message

UndegraundMen ®

Longevity: 8 years 9 months

Posts: 25145

Торрент-статистика

Post 11-Mar-2013 21:58

[Quote]

Вероника. Беглянка [1 серии из 16] (2013) SATRip [Обновляемая]- Русское название: Вероника. Беглянка
Выпущено: Россия
Год выпуска: 2013
Жанр: Mелодрама
Перевод: Оригинал (Русский)
Субтитры: Отсутствуют
kinopoisk Сэмпл:
Режиссер: Андрей Селиванов
Актеры: Наталья Бардо, Александр Дьяченко, Сергей Жигунов, Амаду Мамадаков, Сергей Астахов, Олег Алмазов, Игорь Седов, Денис Бургазлиев, Михаил Слесарев, Екатерина Данилова (II), Алина Кизиярова, Шухрат Иргашев, Гурам Баблишвили, Анна Литкенс
Описание фильма:
Когда теряешь своих близких, то кажется, что весь мир рушится вокруг тебя. Так и у нашей героини - Вероники. Смерть мужа не только подкосила её, но и оставила один на один со всеми проблемами, главной из которых-бандиты. Отец Вероники был выдающимся учёным, которой оставил после себя научное открытие которому нет цены. Вся дилемма в том, что им не нужна сама девушка, им нужно это открытие. Рискуя своей жизнью девушка видит один выход из ситуации-это передать всё записи отца его ученику, который проживает в Польше. Она понимает что самолет и поезд для поездки невозможны, так как ее легко могут найти. Вероника знакомиться с дальнобойщиком, возящего через границу мебель и уезжает в Краков с ним в его фургоне. Однако невозможно всё просчитать фортуна напрочь отвернулась. непредвиденный случай заставляет девушку менять свою цель и теперь уже спасать свою жизнь но самое обидное, что был похищен блокнот отца со всеми записями. Насколько хватит у Вероники сил и мужества найти верный путь и правильное решение.
Продолжительность: 1 х ~ 00:42:00 серия
Качество видео: SATRip
Видеокодек: DivX 5
Битрейт видео: ~1601 Kbit/s
Размер кадра: 704 х 400
Аудиокодек: MP3, 2.0
Битрейт аудио: 128 Kbit/sВнимание! Раздача ведётся путём добавления новых серий

Внимание! Раздача ведётся путём добавления новых серий. Описание обновления торрента.

Внимание! Раздача ведётся путём добавления новых серий; при каждом добавлении создётся новый торрент. Чтобы начать докачку новой серии, пользователям необходимо сделать следующее:
(1) остановить скачивание,
(2) удалить старый торрент у себя из клиента (старые серии удалять не надо),
(3) скачать новый торрент и запустить его у себя в клиенте вместо старого, при этом указать клиенту путь в старую папку куда и должно происходить скачивание новых серий.
Ваш клиент при этом должен произвести хеширование (проверку) старой папки (если не производит сам - помогите ему сделать это), и будет докачивать только те серии которых у вас ещё нет. Старые серии при этом не удаляются, а продолжают раздаваться!
Eсли вы уже удалили старые серии, то предотвратить повторную закачку старых серий можно, отжав галочку в соответсвующих местах при запуске нового торрента. По возможности, желательно не удалять старые серии как можно дольше чтобы релизёр не столько продолжал раздавать старые серии, а смог сконцентрироваться на новых.

MediaInfo

Общее
Полное имя : D:\Торренты\Вероника. Беглянка. 2013. SATRip\Вероника. Беглянка.01.avi
Формат : AVI
Формат/Информация : Audio Video Interleave
Размер файла : 528 Мбайт
Продолжительность : 42 м.
Общий поток : 1742 Кбит/сек
Библиотека кодирования : Boilsoft AVI tool build 1/release
Видео
Идентификатор : 0
Формат : MPEG-4 Visual
Профиль формата : [email protected]
Параметр BVOP формата : Нет
Параметр QPel формата : Нет
Параметр GMC формата : Без точки перехода
Параметр матрицы формата : Default (H.263)
Идентификатор кодека : DX50
Идентификатор кодека/Подсказка : DivX 5
Продолжительность : 42 м.
Битрейт : 1601 Кбит/сек
Ширина : 704 пикс.
Высота : 400 пикс.
Соотношение сторон : 16:9
Частота кадров : 25,000 кадр/сек
Цветовое пространство : YUV
Подвыборка цветности : 4:2:0
Битовая глубина : 8 бит
Тип развёртки : Прогрессивная
Метод сжатия : С потерями
Бит/(Пиксели*Кадры) : 0.227
Размер потока : 486 Мбайт (92%)
Библиотека кодирования : XviD 1.2.1 (UTC 2008-12-04)
Аудио
Идентификатор : 1
Формат : MPEG Audio
Версия формата : Version 1
Профиль формата : Layer 3
Режим : Joint stereo
Идентификатор кодека : 55
Идентификатор кодека/Подсказка : MP3
Продолжительность : 42 м.
Вид битрейта : Постоянный
Битрейт : 128 Кбит/сек
Каналы : 2 канала
Частота : 48,0 КГц
Метод сжатия : С потерями
Размер потока : 38,8 Мбайт (7%)
Выравнивание : Соединение по промежуткам
Продолжительность промежутка : 24 мс. (0,60 видеокадр)
Время предзагрузки промежутка : 504 ms
Библиотека кодирования : LAME3.98.2
Скриншоты:
           
Other forum [Profile] [PM]
Display posts from previous:    
Reply to topic

The time now is: Today 00:16

All times are GMT + 3 Hours



You cannot post new topics in this forum
You cannot reply to topics in this forum
You cannot edit your posts in this forum
You cannot delete your posts in this forum
You cannot vote in polls in this forum
You cannot attach files in this forum
You cannot download files in this forum