Today is a free download without charge Download

Цыганский остров / Будулай, которого не ждут / Серии: 4 из 4 (Александр Фенько) [1993, Мелодрама, экранизация, DVB]

Reply to topic
 
Author
Message

Omen ®

Longevity: 9 years 1 month

Posts: 181086

Торрент-статистика

Post 11-Mar-2013 12:35

[Quote]

Цыганский остров / Будулай, которого не ждут
Год выпуска: 1993
Производство: ТОНАП
Жанр: Мелодрама, экранизация
Продолжительность: ~00:56:00
Режиссёр: Александр Фенько
В ролях: Отар Мегвинетухуцеси, Ирина Купченко, Татьяна Васильева, Николай Шишков, Гуранда Габуния, Лидия Вележева, Вадим Андреев, Марфа Назарова, Георгий Юматов, Раиса Боровикова, Борис Ташкентский, Иван Глубоков, Юрий Назаров, Василий Фунтиков, Эвелина Сакуро, Муза Крепкогорская, Рудольф Панков, Валентина Петрачкова, Андрей Сухарь, Раиса Удовикова, Янина Хачатурова, Евгений Шипило, Иван Васильченков
Описание: Телевизионная версия известной истории о цыгане Будулае. По мотивам романа Анатолия Калинина "Цыган". Отсидев десять лет в тюрьме, цыган Будулай возвращается в донскую станицу. Его жена погибла, а маленького сына воспитывает казачка Клавдия Пухлякова...

Список серий:
1.Будулай, которого не ждут
2.Тени прожитых лет
3.Горькая свадьба
4.Подсолнухи зимой не цветут
Качество: DVB
Формат: MPEG
Видео кодек: MPEG2
Аудио кодек: MP2
Видео: MPEG2 Video 720x576 (4:3) 25.00fps Bit rate 3500Kbps Constant Bits/(Pixel*Frame) 0.338
Аудио: MPEG Audio 48.0 KHz 2ch 192kbps

MI

General
Complete name : E:\torrent\Цыганский остров\1.Будулай, которого не ждут.mpg
Format : MPEG-PS
File size : 1.49 GiB
Duration : 57mn 6s
Overall bit rate : 3 739 Kbps
Writing library : (c) 1998-2011 Womble Multimedia, Inc. / MPEG Video Wizard DVD 5.0.1.100 (03/2011) / Dec 15 2011
Video
ID : 224 (0xE0)
Format : MPEG Video
Format version : Version 2
Format profile : [email protected]
Format settings, BVOP : Yes
Format settings, Matrix : Default
Format settings, GOP : M=3, N=24
Duration : 57mn 6s
Bit rate mode : Constant
Bit rate : 3 500 Kbps
Width : 720 pixels
Height : 576 pixels
Display aspect ratio : 4:3
Frame rate : 25.000 fps
Standard : PAL
Color space : YUV
Chroma subsampling : 4:2:0
Bit depth : 8 bits
Scan type : Interlaced
Scan order : Top Field First
Bits/(Pixel*Frame) : 0.338
Stream size : 1.39 GiB (93%)
Writing library : (c) 1998-2011 Womble Multimedia, Inc. / MPEG Video Wizard DVD 5.0.1.100 (03/2011) / Dec 15 2011
Audio
ID : 192 (0xC0)
Format : MPEG Audio
Format version : Version 1
Format profile : Layer 2
Duration : 57mn 6s
Bit rate mode : Constant
Bit rate : 192 Kbps
Channel(s) : 2 channels
Sampling rate : 48.0 KHz
Video delay : -80ms
Stream size : 78.4 MiB (5%)

Скриншоты

Other forum [Profile] [PM]
Display posts from previous:    
Reply to topic

The time now is: Today 23:27

All times are GMT + 3 Hours



You cannot post new topics in this forum
You cannot reply to topics in this forum
You cannot edit your posts in this forum
You cannot delete your posts in this forum
You cannot vote in polls in this forum
You cannot attach files in this forum
You cannot download files in this forum