Today is a free download without charge Download

Орландо / Orlando (Салли Поттер / Sally Potter) [1992, Великобритания, Россия, Франция, Италия, Нидерланды, драма, мелодрама, BDRip 720p] DVO (Ленфильм) + AVO (Алексеев) + Original + subs (Rus, Eng)

Reply to topic
 
Author
Message

Omen ®

Longevity: 8 years 5 months

Posts: 181087

Торрент-статистика

Post 11-Mar-2013 12:35

[Quote]

Орландо / Orlando- Год выпуска: 1992
Страна: Великобритания, Россия, Франция, Италия, Нидерланды
Жанр: драма, мелодрама
Продолжительность: 01:33:43
Перевод 1: Профессиональный (двухголосый, закадровый) Ленфильм
Перевод 2: Авторский одноголосый А.Алексеев
Оригинальная звуковая дорожка: English
Cубтитры: Russian, English-Режиссер: Салли Поттер / Sally Potter
В ролях: Тильда Суинтон, Билли Зейн, Лотер Блюто, Шарлотт Валандре, Джон Вуд, Хиткоут Уильямс, Квентин Крисп, Питер Айр, Том Хоффман, Сара Кроуден
Описание: Основанный на романе Вирджинии Вулф, фильм начинается в Лондоне 17-го столетия. Орландо - юноша-аристократ, гермафродитный по моде того времени и серьезно настроенный превратить жизнь, о которой он знает так мало, в искусство, о котором он знает еще меньше.
Орландо привлекает внимание стареющей королевы Елизаветы I, и ее величество приказывает ему не взрослеть и не стареть. Орландо подчиняется, необъяснимым образом оставаясь розовощеким красавцем, несмотря на то, что проходят века. Романтик до мозга костей, Орландо мучительно страдает от безответной любви к очаровательной русской княжне Саше; когда он находит ее фальшивой, то выпрашивает на долгий срок должность посла Англии в Аравии.
В один прекрасный день Орландо засыпает глубоким сном, а когда просыпается, то обнаруживает в себе чудесным образом произошедшую перемену пола. Приключения Орландо продолжаются, и она провожает столетия в развлечениях, отказываясь вести себя иначе, так как теперь он - женщина.-DON!
Релиз: by Skoped
Формат: MKV
Видео: 1280x692 at 23.976 fps, [email protected], 2pass, ~9892 kbps avg
Аудио #1: Russian: 48 kHz, AC3, 2/0 (L,R) ch, ~192.00 kbps avg |Двухголосый закадровый, Ленфильм|
Аудио #2: Russian: 48 kHz, AC3, 2/0 (L,R) ch, ~192.00 kbps avg |Одноголосый закадровый, А. Алексеев|
Аудио #3: English: 48 kHz, DTS, 2/0 (L,R) ch, ~1510.00 kbps avg
Аудио #4: English: 48 kHz, AC3, 2/0 (L,R) ch, ~192.00 kbps avg |Commentary with Director Sally Potter and Actress Tilda Swinton|
Семпл-

Source~Encode





-

mInfo


Формат : Matroska
Версия формата : Version 2
Размер файла : 7,84 Гбайт
Продолжительность : 1 ч. 33 м.
Общий поток : 12,0 Мбит/сек
Название фильма : Orlando (1992) - Release for HDCLUB
Дата кодирования : UTC 2013-03-10 14:15:40
Программа кодирования : mkvmerge v3.4.0 ('Rapunzel') сборка от May 15 2010 09:38:20
Библиотека кодирования : libebml v0.8.0 + libmatroska v0.9.0
Видео
Идентификатор : 1
Формат : AVC
Формат/Информация : Advanced Video Codec
Профиль формата : [email protected]
Параметр CABAC формата : Да
Параметр ReFrames формата : 9 кадров
Идентификатор кодека : V_MPEG4/ISO/AVC
Продолжительность : 1 ч. 33 м.
Битрейт : 9892 Кбит/сек
Ширина : 1280 пикселей
Высота : 692 пикселя
Соотношение сторон : 1,850
Частота кадров : 23,976 кадра/сек
Цветовое пространство : YUV
Субдискретизация насыщенности : 4:2:0
Битовая глубина : 8 бит
Тип развёртки : Прогрессивная
Бит/(Пиксели*Кадры) : 0.466
Размер потока : 6,32 Гбайт (81%)
Заголовок : Release for HDCLUB
Библиотека кодирования : x264 core 129 r2230 1cffe9f
Настройки программы : cabac=1 / ref=9 / deblock=1:-3:-3 / analyse=0x3:0x133 / me=umh / subme=10 / psy=1 / psy_rd=1.00:0.03 / mixed_ref=1 / me_range=32 / chroma_me=1 / trellis=2 / 8x8dct=1 / cqm=0 / deadzone=21,11 / fast_pskip=0 / chroma_qp_offset=-3 / threads=3 / lookahead_threads=1 / sliced_threads=0 / nr=0 / decimate=0 / interlaced=0 / bluray_compat=0 / constrained_intra=0 / bframes=9 / b_pyramid=2 / b_adapt=2 / b_bias=0 / direct=3 / weightb=1 / open_gop=0 / weightp=2 / keyint=250 / keyint_min=23 / scenecut=40 / intra_refresh=0 / rc=2pass / mbtree=0 / bitrate=9892 / ratetol=1.0 / qcomp=0.60 / qpmin=0 / qpmax=69 / qpstep=4 / cplxblur=20.0 / qblur=0.5 / ip_ratio=1.40 / pb_ratio=1.20 / aq=1:0.85 / zones=2065,2503,b=1.2/2810,3270,b=1.2/4070,6497,b=1.1/7243,7969,b=1.1/7970,8853,b=1.2/9513,11619,b=1.2/13055,16527,b=1.2/16528,17144,b=1.1/22379,25465,b=1.1/26723,30434,b=1.2/37680,42640,b=1.2/45009,45460,b=1.2/67667,69088,b=1.1/71673,79440,b=1.2/104917,113765,b=1.2/120221,120929,b=1.2/129162,134831,b=0.5
Язык : English
Аудио #1
Идентификатор : 2
Формат : AC-3
Формат/Информация : Audio Coding 3
Расширение режима : CM (complete main)
Идентификатор кодека : A_AC3
Продолжительность : 1 ч. 33 м.
Вид битрейта : Постоянный
Битрейт : 192 Кбит/сек
Каналы : 2 канала
Расположение каналов : Front: L R
Частота : 48,0 КГц
Битовая глубина : 16 бит
Метод сжатия : С потерями
Размер потока : 129 Мбайт (2%)
Заголовок : Двухголосый закадровый, Ленфильм
Язык : Russian
Аудио #2
Идентификатор : 3
Формат : AC-3
Формат/Информация : Audio Coding 3
Расширение режима : CM (complete main)
Идентификатор кодека : A_AC3
Продолжительность : 1 ч. 33 м.
Вид битрейта : Постоянный
Битрейт : 192 Кбит/сек
Каналы : 2 канала
Расположение каналов : Front: L R
Частота : 48,0 КГц
Битовая глубина : 16 бит
Метод сжатия : С потерями
Размер потока : 129 Мбайт (2%)
Заголовок : Одноголосый закадровый, А. Алексеев
Язык : Russian
Аудио #3
Идентификатор : 4
Формат : DTS
Формат/Информация : Digital Theater Systems
Идентификатор кодека : A_DTS
Продолжительность : 1 ч. 33 м.
Вид битрейта : Постоянный
Битрейт : 1510 Кбит/сек
Каналы : 2 канала
Расположение каналов : Front: L R
Частота : 48,0 КГц
Битовая глубина : 24 бит
Метод сжатия : С потерями
Размер потока : 1012 Мбайт (13%)
Язык : English
Аудио #4
Идентификатор : 5
Формат : AC-3
Формат/Информация : Audio Coding 3
Профиль формата : Dolby Digital
Расширение режима : CM (complete main)
Идентификатор кодека : A_AC3
Продолжительность : 1 ч. 33 м.
Вид битрейта : Постоянный
Битрейт : 192 Кбит/сек
Каналы : 2 канала
Расположение каналов : Front: L R
Частота : 48,0 КГц
Битовая глубина : 16 бит
Метод сжатия : С потерями
Размер потока : 129 Мбайт (2%)
Заголовок : Commentary with S. Potter & T. Swinton
Язык : English
Текст #1
Идентификатор : 6
Формат : UTF-8
Идентификатор кодека : S_TEXT/UTF8
Идентификатор кодека/Информация : UTF-8 Plain Text
Язык : Russian
Текст #2
Идентификатор : 7
Формат : UTF-8
Идентификатор кодека : S_TEXT/UTF8
Идентификатор кодека/Информация : UTF-8 Plain Text
Язык : English
Меню
00:00:00.000 : :00:00:00.000
00:06:09.286 : :00:06:09.286
00:11:56.007 : :00:11:56.007
00:13:26.389 : :00:13:26.389
00:17:42.144 : :00:17:42.144
00:24:07.196 : :00:24:07.196
00:31:36.103 : :00:31:36.103
00:37:21.322 : :00:37:21.322
00:40:46.611 : :00:40:46.611
00:48:01.587 : :00:48:01.587
00:53:30.791 : :00:53:30.791
01:00:18.698 : :01:00:18.698
01:06:25.815 : :01:06:25.815
01:11:02.049 : :01:11:02.049
01:16:41.639 : :01:16:41.639
01:24:33.068 : :01:24:33.068
-
Other forum [Profile] [PM]
Display posts from previous:    
Reply to topic

The time now is: Today 02:06

All times are GMT + 3 Hours



You cannot post new topics in this forum
You cannot reply to topics in this forum
You cannot edit your posts in this forum
You cannot delete your posts in this forum
You cannot vote in polls in this forum
You cannot attach files in this forum
You cannot download files in this forum