Today is a free download without charge Download

Морской пехотинец: Тыл / Морской пехотинец 3 / The Marine 3: Homefront / The Marine: Homefront (Скотт Вайпер / Scott Wiper) [2013, США, боевик, BDRip 720p] VO (den904) + Original (Eng) + Sub (Eng)

Reply to topic
 
Author
Message

Omen ®

Longevity: 8 years 5 months

Posts: 181087

Торрент-статистика

Post 11-Mar-2013 12:35

[Quote]

Морской пехотинец: Тыл / Морской пехотинец 3 / The Marine 3: Homefront / The Marine: Homefront Страна: США
Студия: WWE Studios
Жанр: боевик
Год выпуска: 2013
Продолжительность: 01:30:09
Перевод: Одноголосый закадровый den904 (по хардсабу от Foxx)
Cубтитры: английские, английские (SDH)
Оригинальная аудиодорожка: английская
Режиссер: Скотт Вайпер / Scott Wiper
В ролях: Майк Мизанин, Нил МакДонаф, Джаред Кисо, Джеффри Баллард, Бен Коттон, Стив Бачич, Шон Тайсон, Дарси Лори, Алекс Паунович, Николя Андерсон
Описание:
Солдат-морпех, приехавший домой на время отпуска, оказывается в эпицентре напряженных событий. Ему приходится рисковать жизнью, чтобы спасти свою сестру, которую похитила вооруженная банда, готовящая террористическую атаку на один из бизнес-центров Сиэтла.
- || || -Тип релиза: BDRip 720p (рип от MySilu)
Контейнер: MKV
Видео: AVC (x264), 1280x720 (16:9) at 23,976 fps, 5434 Кbps, 0.246 bpp
Аудио 1: DTS; 1536 Kbps; CBR; 6 ch; 48 khz; 24 bit | VO - den904 |
Аудио 2: DTS; 1536 Kbps; CBR; 6 ch; 48 khz; 24 bit | Английский |
Формат субтитров: softsub (SRT)

Скриншоты || x264 Info || MediaInfo || Notes

MediaInfo

Код:
Общее
Уникальный идентификатор                 : 215403240270421227824961451160674731163 (0xA20D27B1B75A07A4ADFB21443BA7849B)
Полное имя                               : Морской пехотинец 3. Тыл.2013.L1.720p.BluRay.x264-MySilu.mkv
Формат                                   : Matroska
Версия формата                           : Version 4 / Version 2
Размер файла                             : 5,32 Гбайт
Продолжительность                        : 1 ч. 30 м.
Общий поток                              : 8442 Кбит/сек
Название фильма                          : profile.php?mode=viewprofile&u=22488948
Дата кодирования                         : UTC 2013-03-10 04:03:40
Программа кодирования                    : mkvmerge v6.1.0 ('Old Devil') built on Mar  2 2013 14:32:37
Библиотека кодирования                   : libebml v1.3.0 + libmatroska v1.4.0
Видео
Идентификатор                            : 1
Формат                                   : AVC
Формат/Информация                        : Advanced Video Codec
Профиль формата                          : [email protected]
Параметр CABAC формата                   : Да
Параметр ReFrames формата                : 8 кадров
Идентификатор кодека                     : V_MPEG4/ISO/AVC
Продолжительность                        : 1 ч. 30 м.
Битрейт                                  : 5434 Кбит/сек
Ширина                                   : 1280 пикселей
Высота                                   : 720 пикселей
Соотношение сторон                       : 16:9
Режим частоты кадров                     : Постоянный
Частота кадров                           : 23,976 кадра/сек
Цветовое пространство                    : YUV
Субдискретизация насыщенности            : 4:2:0
Битовая глубина                          : 8 бит
Тип развёртки                            : Прогрессивная
Бит/(Пиксели*Кадры)                      : 0.246
Размер потока                            : 3,31 Гбайт (62%)
Библиотека кодирования                   : x264 core 129 r2245 bc13772
Настройки программы                      : cabac=1 / ref=8 / deblock=1:-2:-2 / analyse=0x3:0x133 / me=umh / subme=9 / psy=1 / psy_rd=1.20:0.20 / mixed_ref=1 / me_range=16 / chroma_me=1 / trellis=2 / 8x8dct=1 / cqm=0 / deadzone=21,11 / fast_pskip=1 / chroma_qp_offset=-3 / threads=9 / lookahead_threads=1 / sliced_threads=0 / nr=0 / decimate=0 / interlaced=0 / bluray_compat=0 / constrained_intra=0 / bframes=3 / b_pyramid=2 / b_adapt=2 / b_bias=0 / direct=3 / weightb=1 / open_gop=0 / weightp=2 / keyint=240 / keyint_min=1 / scenecut=40 / intra_refresh=0 / rc_lookahead=60 / rc=2pass / mbtree=0 / bitrate=5434 / ratetol=1.0 / qcomp=0.60 / qpmin=10 / qpmax=51 / qpstep=4 / cplxblur=20.0 / qblur=0.5 / vbv_maxrate=38000 / vbv_bufsize=38000 / nal_hrd=none / ip_ratio=1.40 / pb_ratio=1.30 / aq=1:1.00
Язык                                     : English
Default                                  : Да
Forced                                   : Нет
Аудио #1
Идентификатор                            : 2
Формат                                   : DTS
Формат/Информация                        : Digital Theater Systems
Режим                                    : 16
Параметр Endianness формата              : Big
Идентификатор кодека                     : A_DTS
Продолжительность                        : 1 ч. 30 м.
Вид битрейта                             : Постоянный
Битрейт                                  : 1510 Кбит/сек
Каналы                                   : 6 каналов
Расположение каналов                     : Front: L C R, Side: L R, LFE
Частота                                  : 48,0 КГц
Битовая глубина                          : 24 бит
Метод сжатия                             : С потерями
Размер потока                            : 974 Мбайт (18%)
Заголовок                                : VO [den904]
Язык                                     : Russian
Default                                  : Да
Forced                                   : Нет
Аудио #2
Идентификатор                            : 3
Формат                                   : DTS
Формат/Информация                        : Digital Theater Systems
Режим                                    : 16
Параметр Endianness формата              : Big
Идентификатор кодека                     : A_DTS
Продолжительность                        : 1 ч. 30 м.
Вид битрейта                             : Постоянный
Битрейт                                  : 1509 Кбит/сек
Каналы                                   : 6 каналов
Расположение каналов                     : Front: L C R, Side: L R, LFE
Частота                                  : 48,0 КГц
Битовая глубина                          : 24 бит
Метод сжатия                             : С потерями
Размер потока                            : 973 Мбайт (18%)
Язык                                     : English
Default                                  : Нет
Forced                                   : Нет
Текст #1
Идентификатор                            : 4
Формат                                   : UTF-8
Идентификатор кодека                     : S_TEXT/UTF8
Идентификатор кодека/Информация          : UTF-8 Plain Text
Язык                                     : English
Default                                  : Нет
Forced                                   : Нет
Текст #2
Идентификатор                            : 5
Формат                                   : UTF-8
Идентификатор кодека                     : S_TEXT/UTF8
Идентификатор кодека/Информация          : UTF-8 Plain Text
Заголовок                                : SDH
Язык                                     : English
Default                                  : Нет
Forced                                   : Нет
Меню
00:00:00.000                             : en:Chapter 1
00:03:31.794                             : en:Chapter 2
00:05:47.263                             : en:Chapter 3
00:10:29.545                             : en:Chapter 4
00:14:20.651                             : en:Chapter 5
00:17:26.545                             : en:Chapter 6
00:20:30.562                             : en:Chapter 7
00:24:17.456                             : en:Chapter 8
00:30:03.760                             : en:Chapter 9
00:34:44.040                             : en:Chapter 10
00:38:51.370                             : en:Chapter 11
00:42:32.466                             : en:Chapter 12
00:47:29.221                             : en:Chapter 13
00:50:46.334                             : en:Chapter 14
00:53:52.229                             : en:Chapter 15
00:55:40.420                             : en:Chapter 16
00:58:14.032                             : en:Chapter 17
01:00:44.599                             : en:Chapter 18
01:04:22.108                             : en:Chapter 19
01:07:41.515                             : en:Chapter 20
01:11:50.639                             : en:Chapter 21
01:14:28.755                             : en:Chapter 22
01:18:40.132                             : en:Chapter 23
01:22:42.749                             : en:Chapter 24
01:30:09.153                             : en:Chapter 25

x264 Info

x264 [info]: frame I:1510 Avg QP:13.57 size:117417
x264 [info]: frame P:39652 Avg QP:14.69 size: 50917
x264 [info]: frame B:88533 Avg QP:16.02 size: 16588
Other forum [Profile] [PM]
Similar theme
Forum Topic Author Torrent Replies Last Post
./templates/default/images/folder_dl.gif Техническая и научно-популярная литература C.Патянин и др. | Кригсмарине. Военно-морской флот Третьего Рейха [2009] [PDF] sashau
1 | 0

0 | 1167

1

2012-12-11 18:48
sashau Latest
./templates/default/images/folder_dl.gif Техническая и научно-популярная литература А.В.Карпенко, Н.И.Шумков | Морские комплексы с баллистическими ракетами (2009) [PDF] NarDok
1 | 0

0 | 612

1

2015-03-14 17:08
NarDok Latest
Display posts from previous:    
Reply to topic

The time now is: Today 11:21

All times are GMT + 3 Hours



You cannot post new topics in this forum
You cannot reply to topics in this forum
You cannot edit your posts in this forum
You cannot delete your posts in this forum
You cannot vote in polls in this forum
You cannot attach files in this forum
You cannot download files in this forum