Today is a free download without charge Download

В.Бутусов и гр.Ю-Питер.Юбилейный концерт. [2013 г., Rock, HDTV]

Reply to topic
 
Author
Message

Эдмунд68 ®

Longevity: 8 years 1 month

Posts: 2

Торрент-статистика

Post 11-Mar-2013 18:48

[Quote]

В.Бутусов и гр.Ю-Питер.Юбилейный концерт.
Год выпуска: 2013
Страна: Россия
Жанр: Rock
Продолжительность: 01:33:56
Описание: Концерт В.Бутусова и гр.Ю-Питер,приуроченный к 50-летию Музыканта.Гости юбиляра:
А.Макаревич
гр.Калинов Мост
С.Галанин и гр.СерьГа
Г.Сукачёв
В.Самойлов
А.Ф.Скляр
Комик-труппа"Лицедеи"
Анжелика Эстоева
Ксения Бутусова
Юлия Худякова.
Запись с трансляции Первого(HD) канала.

ТрекЛист:

Intro
1.Бриллиантовые дороги
2.Ален Делон(Взгляд с экрана)
3.Титаник(+А.Макаревич)
4.Песня идущего домой
5.Девушка по городу(К.Бутусова)
6.Прогулки по воде(Калинов Мост)
7.Негорькая слеза
8.Казанова(СерьГа)
9.Вселенская
10.Терновник(+А.Эстоева)
11.Скованные одной цепью(Г.Сукачёв,Лицедеи)
12.Крылья
13.Тутанхамон(+В.Самойлов)
14.Шар цвета хаки(+В.Самойлов,Лицедеи)
15.Хлоп-Хлоп(+В.Самойлов,Лицедеи)
16.Моя звезда(+А.Ф.Скляр)
17.Дыхание
18.Прощальное письмо(+Все гости).
Качество: HDTV
Формат: MKV
Видео кодек: H.264
Аудио кодек: AC3,MPEG2 audio
Видео: AVC,1920*1080(16x9),25.000fps,7760kbps
Аудио: AC-3,384kbps,2ch,48.0khz.

Скриншоты

         

MI:

General
Unique ID : 194946100245153493779979580058642895212 (0x92A940D1BD3A016C8E68DE7FE8E3516C)
Complete name : C:\\Users\\Эд\\Videos\\торенты\\Вячеслав Бутусов - 50! Юбилейный концерт (20.10.2011) (2011, Rock, Концерт, HDTV) .mkv
Format : Matroska
Format version : Version 2
File size : 5.58 GiB
Duration : 1h 33mn
Overall bit rate : 8 505 Kbps
Encoded date : UTC 2013-03-11 07:20:03
Writing application : mkvmerge v5.3.0 (\'I could have danced\') built on Feb 9 2012 10:38:07
Writing library : libebml v1.2.3 + libmatroska v1.3.0
Video
ID : 1
Format : AVC
Format/Info : Advanced Video Codec
Format profile : [email protected]
Format settings, CABAC : Yes
Format settings, ReFrames : 3 frames
Format settings, GOP : M=3, N=30
Muxing mode : Header stripping
Codec ID : V_MPEG4/ISO/AVC
Duration : 1h 33mn
Bit rate : 7 760 Kbps
Width : 1 920 pixels
Height : 1 080 pixels
Display aspect ratio : 16:9
Frame rate mode : Constant
Frame rate : 25.000 fps
Color space : YUV
Chroma subsampling : 4:2:0
Bit depth : 8 bits
Scan type : MBAFF
Bits/(Pixel*Frame) : 0.150
Stream size : 5.09 GiB (91%)
Default : Yes
Forced : No
Audio #1
ID : 2
Format : MPEG Audio
Format version : Version 1
Format profile : Layer 2
Mode : Joint stereo
Mode extension : Intensity Stereo + MS Stereo
Muxing mode : Header stripping
Codec ID : A_MPEG/L2
Codec ID/Hint : MP2
Duration : 1h 33mn
Bit rate mode : Constant
Bit rate : 192 Kbps
Channel(s) : 2 channels
Sampling rate : 48.0 KHz
Compression mode : Lossy
Stream size : 129 MiB (2%)
Language : Russian
Default : Yes
Forced : No
Audio #2
ID : 3
Format : AC-3
Format/Info : Audio Coding 3
Mode extension : CM (complete main)
Format settings, Endianness : Big
Muxing mode : Header stripping
Codec ID : A_AC3
Duration : 1h 33mn
Bit rate mode : Constant
Bit rate : 384 Kbps
Channel(s) : 2 channels
Channel positions : Front: L R
Sampling rate : 48.0 KHz
Bit depth : 16 bits
Compression mode : Lossy
Stream size : 258 MiB (5%)
Language : Russian
Default : No
Forced : No
Добавлено спустя 7 часов 46 минут 43 секунды:
Other forum [Profile] [PM]
Display posts from previous:    
Reply to topic

The time now is: Today 21:24

All times are GMT + 3 Hours



You cannot post new topics in this forum
You cannot reply to topics in this forum
You cannot edit your posts in this forum
You cannot delete your posts in this forum
You cannot vote in polls in this forum
You cannot attach files in this forum
You cannot download files in this forum