Today is a free download without charge Download

Предчувствие (серии 1-16 из 16) (2013) DVB

Reply to topic
 
Author
Message

UndegraundMen ®

Longevity: 8 years 9 months

Posts: 25145

Торрент-статистика

Post 11-Mar-2013 10:51

[Quote]

Предчувствие (серии 1-16 из 16) (2013) DVB- Русское название: Предчувствие
Год выпуска: 2013
Жанр: Мелодрама, Мистика
Режиссер: Алёна Семёнова
Актеры: Елена Морозова, Валентина Талызина, Вера Воронкова, Дмитрий Шевченко, Тимофей Трибунцев, Сергей Мардарь, Денис Сухомлинов, Михаил Гаврилов (II), Дмитрий Ермак, Виктория Маслова, Сергей Барышев
Описание фильма:
Валентина Смолина — обычная и ничем не примечательная женщина. Она живет в небольшом городе, работает почтальоном, ей 45 лет. Смолина еще не утратила своей женской привлекательности, но уже не ждет от жизни ничего нового. Всё устоялось в ее судьбе, и резких поворотов не предвидится, но события начинают развиваться мистически… И жизнь Валентины меняется в один день — резко и бесповоротно!
После автомобильной аварии Смолина понимает, что может видеть «картинки» и голоса прошлого. И не только прошлого, но и ближайшего будущего! И эти «картинки» и голоса — вещие…
kinopoisk
Дата российской премьеры: 08.03.2013
Продолжительность: ~ 00:42:00
Качество видео: DVBRip
Видеокодек: MPEG-2
Битрейт видео: ~4100 Kbps (1-4 серия), ~5000 Kbps (5-16 серия)
Размер кадра: 720x576
Аудиокодек: MP2
Битрейт аудио: 2 ch, 192 Kbps

MediaInfo:

Код:
Общее
Полное имя : E:\DOWNLOADS\Предчувствие (2013) DVB\Предчувствие - 1 серия.mpg
Формат : MPEG-PS
Размер файла : 1,32 Гбайт
Продолжительность : 42 м.
Режим общего битрейта : Переменный
Общий поток : 4402 Кбит/сек
Библиотека кодирования : (c) 1998-2012 Womble Multimedia, Inc. / MPEG Video Wizard DVD 5.0.1.100 (03/2011) / Sep 7 2012
Видео
Идентификатор : 224 (0xE0)
Формат : MPEG Video
Версия формата : Version 2
Профиль формата : [email protected]
Параметр BVOP формата : Да
Параметр матрицы формата : Выборочная
Параметр GOP формата : Variable
Продолжительность : 42 м.
Вид битрейта : Переменный
Битрейт : 4123 Кбит/сек
Максимальный битрейт : 15,0 Мбит/сек
Ширина : 720 пикселей
Высота : 576 пикселей
Соотношение сторон : 4:3
Частота кадров : 25,000 кадров/сек
Стандарт вещания : PAL
Цветовое пространство : YUV
Субдискретизация насыщенности : 4:2:0
Битовая глубина : 8 бит
Метод сжатия : С потерями
Бит/(Пиксели*Кадры) : 0.398
TimeCode_FirstFrame : 00:00:00:00
TimeCode_Source : Group of pictures header
Размер потока : 1,24 Гбайт (94%)
Библиотека кодирования : (c) 1998-2012 Womble Multimedia, Inc. / MPEG Video Wizard DVD 5.0.1.100 (03/2011) / Sep 7 2012
Аудио
Идентификатор : 192 (0xC0)
Формат : MPEG Audio
Версия формата : Version 1
Профиль формата : Layer 2
Продолжительность : 42 м.
Вид битрейта : Постоянный
Битрейт : 192 Кбит/сек
Каналы : 2 канала
Частота : 48,0 КГц
Метод сжатия : С потерями
Размер потока : 59,0 Мбайт (4%)
Код:
Общее
Полное имя : E:\DOWNLOADS\Предчувствие (2013) DVB\Предчувствие - 5 серия.mpg
Формат : MPEG-PS
Размер файла : 1,50 Гбайт
Продолжительность : 42 м.
Режим общего битрейта : Переменный
Общий поток : 5100 Кбит/сек
Библиотека кодирования : (c) 1998-2012 Womble Multimedia, Inc. / MPEG Video Wizard DVD 5.0.1.100 (03/2011) / Sep 7 2012
Видео
Идентификатор : 224 (0xE0)
Формат : MPEG Video
Версия формата : Version 2
Профиль формата : [email protected]
Параметр BVOP формата : Да
Параметр матрицы формата : Выборочная
Параметр GOP формата : Variable
Продолжительность : 42 м.
Вид битрейта : Переменный
Битрейт : 4807 Кбит/сек
Максимальный битрейт : 15,0 Мбит/сек
Ширина : 720 пикселей
Высота : 576 пикселей
Соотношение сторон : 4:3
Частота кадров : 25,000 кадров/сек
Стандарт вещания : PAL
Цветовое пространство : YUV
Субдискретизация насыщенности : 4:2:0
Битовая глубина : 8 бит
Метод сжатия : С потерями
Бит/(Пиксели*Кадры) : 0.464
TimeCode_FirstFrame : 00:00:00:00
TimeCode_Source : Group of pictures header
Размер потока : 1,41 Гбайт (94%)
Библиотека кодирования : (c) 1998-2012 Womble Multimedia, Inc. / MPEG Video Wizard DVD 5.0.1.100 (03/2011) / Sep 7 2012
Аудио
Идентификатор : 192 (0xC0)
Формат : MPEG Audio
Версия формата : Version 1
Профиль формата : Layer 2
Продолжительность : 42 м.
Вид битрейта : Постоянный
Битрейт : 192 Кбит/сек
Каналы : 2 канала
Частота : 48,0 КГц
Метод сжатия : С потерями
Размер потока : 57,8 Мбайт (4%)
Скриншоты:
           
Other forum [Profile] [PM]
Display posts from previous:    
Reply to topic

The time now is: Today 18:27

All times are GMT + 3 Hours



You cannot post new topics in this forum
You cannot reply to topics in this forum
You cannot edit your posts in this forum
You cannot delete your posts in this forum
You cannot vote in polls in this forum
You cannot attach files in this forum
You cannot download files in this forum