Today is a free download without charge Download

Discovery: Джесси Джеймс: гараж с нуля (1 выпуск)/ Discovery: Jesse James: Outlaw garage (2012) WEB-Rip[обновляемая]

Reply to topic
 
Author
Message

UndegraundMen ®

Longevity: 7 years 7 months

Posts: 25145

Торрент-статистика

Post 10-Mar-2013 22:13

[Quote]

Discovery: Джесси Джеймс: гараж с нуля (1 выпуск) / Discovery: Jesse James: Outlaw garage (2012) WEB-Rip[обновляемая]- Русское название: Discovery: Джесси Джеймс: гараж с нуля
Оригинальное название: Discovery: JESSE JAMES: OUTLAW GARAGE
Режиссер / Телекомпания: Discovery Channel
Год выпуска: 2012
Жанр: Документальный
Описание:
Джесси Джеймс - один из самых знаменитых реставраторов автомобилей Америки, занимается своим новым бизнесом в своей новой автомастерской Austin Speed Shop.
в этом выпуске: Хотрод для неизвестного клиента
Он предлагает своим новым сотрудникам пройти первый тест: отремонтировать родстер Ford 1932 года всего за один месяц. Джесси и команда делают классический родстер Модели "А", но когда Джесси отказывается назвать клиента, Боб недоволен, и напряженность растет. Джесси едет в Англию.
Продолжительность: 00:45:12
Перевод: Одноголосый закадровый, профессиональный
Видеокодек: Xvid
Битрейт видео: ~1499 Кбит/сек
Размер кадра: 716x426
Качество видео: WEB-Rip
Аудиокодек: MP3, 2 канала
Битрейт аудио: 256 Кбит/сек
Скриншоты:
       
       

MediaInfo

Общее
Полное имя : H:\ДОКУМЕНТАЛКИ\гараж с нуля\гараж с нуля 1 серия.avi
Формат : AVI
Формат/Информация : Audio Video Interleave
Размер файла : 571 Мбайт
Продолжительность : 45 м.
Общий поток : 1768 Кбит/сек
Программа кодирования : Lavf52.94.0
Видео
Идентификатор : 0
Формат : MPEG-4 Visual
Профиль формата : [email protected]
Параметр BVOP формата : Нет
Параметр QPel формата : Нет
Параметр GMC формата : Без точки перехода
Параметр матрицы формата : Default (H.263)
Идентификатор кодека : XVID
Идентификатор кодека/Подсказка : XviD
Продолжительность : 45 м.
Битрейт : 1499 Кбит/сек
Ширина : 716 пикселей
Высота : 426 пикселей
Соотношение сторон : 1,681
Частота кадров : 25,000 кадров/сек
Цветовое пространство : YUV
Субдискретизация насыщенности : 4:2:0
Битовая глубина : 8 бит
Тип развёртки : Прогрессивная
Метод сжатия : С потерями
Бит/(Пиксели*Кадры) : 0.197
Размер потока : 484 Мбайт (85%)
Библиотека кодирования : XviD 1.2.1 (UTC 2008-12-04)
Аудио
Идентификатор : 1
Формат : MPEG Audio
Версия формата : Version 1
Профиль формата : Layer 3
Режим : Joint stereo
Расширение режима : MS Stereo
Идентификатор кодека : 55
Идентификатор кодека/Подсказка : MP3
Продолжительность : 45 м.
Вид битрейта : Постоянный
Битрейт : 256 Кбит/сек
Каналы : 2 канала
Частота : 48,0 КГц
Метод сжатия : С потерями
Размер потока : 82,8 Мбайт (14%)
Выравнивание : Соединение по промежуткам
Продолжительность промежутка : 24 мс. (0,60 видеокадр)
Время раздачи: с 9:00 до 21:00 по МСК
Other forum [Profile] [PM]
Display posts from previous:    
Reply to topic

The time now is: Today 11:44

All times are GMT + 3 Hours



You cannot post new topics in this forum
You cannot reply to topics in this forum
You cannot edit your posts in this forum
You cannot delete your posts in this forum
You cannot vote in polls in this forum
You cannot attach files in this forum
You cannot download files in this forum