Today is a free download without charge Download

Условия контракта 2 (серии 1-8 из 8) (2013) DVB

Reply to topic
 
Author
Message

UndegraundMen ®

Longevity: 8 years 9 months

Posts: 25145

Торрент-статистика

Post 10-Mar-2013 17:45

[Quote]

Условия контракта 2 (серии 1-8 из 8) (2013) DVB- Русское название: Условия контракта 2
Год выпуска: 2013
Жанр: Мелодрама
Режиссер: Игорь Мужжухин
Актеры: Елена Великанова, Кирилл Сафонов, Наталья Рудова, Марина Куделинская, Наталья Данилова, Людмила Титова, Артём Осипов, Игорь Гудеев, Юрий Сазонов
Описание фильма:
Фильм повествует о том, как человеческая судьба может резко измениться и расколоть счастье двух влюбленных людей накануне свадьбы. Главной героине придется пережить все тяготы жизни, чтобы отстоять свою жизнь и помочь близким людям.

Продолжительность: ~ 00:45:00
Качество видео: DVBRip
Видеокодек: MPEG-2
Битрейт видео: ~4500 Kbps
Размер кадра: 720x576
Аудиокодек: MP2
Битрейт аудио: 1 ch, 192 Kbps
MediaInfo:
Код:
Общее
Полное имя : E:\DOWNLOADS\Условия контракта 2 (2013) DVB\Условия контракта 2 - 1 серия.mpg
Формат : MPEG-PS
Размер файла : 1,58 Гбайт
Продолжительность : 47 м.
Режим общего битрейта : Переменный
Общий поток : 4770 Кбит/сек
Библиотека кодирования : (c) 1998-2010 Womble Multimedia, Inc. / MPEG Video Wizard DVD 5.0.0.114 (01/2010) / Nov 13 2010
Видео
Идентификатор : 224 (0xE0)
Формат : MPEG Video
Версия формата : Version 2
Профиль формата : [email protected]
Параметр BVOP формата : Да
Параметр матрицы формата : Выборочная
Параметр GOP формата : Variable
Продолжительность : 47 м.
Вид битрейта : Переменный
Битрейт : 4483 Кбит/сек
Максимальный битрейт : 15,0 Мбит/сек
Ширина : 720 пикселей
Высота : 576 пикселей
Соотношение сторон : 4:3
Частота кадров : 25,000 кадров/сек
Стандарт вещания : PAL
Цветовое пространство : YUV
Субдискретизация насыщенности : 4:2:0
Битовая глубина : 8 бит
Тип развёртки : Чересстрочная
Порядок развёртки : Верхнее поле первое
Метод сжатия : С потерями
Бит/(Пиксели*Кадры) : 0.432
TimeCode_FirstFrame : 00:00:00:00
TimeCode_Source : Group of pictures header
Размер потока : 1,49 Гбайт (94%)
Библиотека кодирования : (c) 1998-2010 Womble Multimedia, Inc. / MPEG Video Wizard DVD 5.0.0.114 (01/2010) / Nov 13 2010
Аудио
Идентификатор : 192 (0xC0)
Формат : MPEG Audio
Версия формата : Version 1
Профиль формата : Layer 2
Продолжительность : 47 м.
Вид битрейта : Постоянный
Битрейт : 192 Кбит/сек
Каналы : 1 канал
Частота : 48,0 КГц
Метод сжатия : С потерями
Размер потока : 65,2 Мбайт (4%)
Скриншоты:
Other forum [Profile] [PM]
Display posts from previous:    
Reply to topic

The time now is: Today 17:56

All times are GMT + 3 Hours



You cannot post new topics in this forum
You cannot reply to topics in this forum
You cannot edit your posts in this forum
You cannot delete your posts in this forum
You cannot vote in polls in this forum
You cannot attach files in this forum
You cannot download files in this forum