Today is a free download without charge Download

Воронины (1-11 сезон, 1-230 серии из 230) (2009-2012) SATRip

Reply to topic
 
Author
Message

UndegraundMen ®

Longevity: 8 years 9 months

Posts: 25145

Торрент-статистика

Post 10-Mar-2013 17:27

[Quote]

Воронины (1-11 сезон, 1-230 серии из 230) (2009-2012) SATRip- Русское название: Воронины
Год выпуска: 2009-2012
Страна: Россия
Жанр: комедия, семейный-
Дата российской премьеры:
16 ноября 2009
Режиссеры: Александр Жигалкин, Леонид Коновалов, Георгий Дронов
Актеры: Георгий Дронов, Екатерина Волкова, Анна Фроловцева, Борис Клюев, Станислав Дужников, Юлия Куварзина, Мария Ильюхина, Кирилл Михин, Филипп Михин, Людмила Дмитриева, Андрей Ургант, Татьяна Орлова, Галина Стаханова, Алексей Якубов, Виктория Алашеева, Ольга Богданова, Татьяна Борисова, Наталья Винтилова, Александр Гришаев, Ирина Даниленко, Ирина Ефремова, Олег Кассин, Михаил Лебедев, Олег Лопухов, Виктория Лукина, Ольга Милоянина, Елена Николаева, Галина Петрова, Дмитрий Прокофьев, Анастасия Сапожникова, Янина Студилина, Дарья Хорошилова, Виктор Андриенко, Константин Карасик, Наталья Хорохорина, Николай Аверюшкин, Зарина Каирова, Михаил Кокшенов...
Описание фильма:
В обычном доме в трехкомнатной квартире живет молодая семья: Костя, его жена Вера и их дети – пятилетняя дочка и два маленьких сына-близнеца. Костя – известный спортивный журналист. Жена Вера любит его и ведет все хозяйство, а дети не доставляют много хлопот. Гораздо больше хлопот им приносят родители Кости, которые живут напротив на той же лестничной площадке… Воронины – это история о том, что иногда родственники бывают слишком близкими.....-Продолжительность: серия ~ 00:24:00
Качество видео: SATRip
Видеокодек: DivX, XviD
Битрейт видео: ~1485 kbps avg
Размер кадра:640х480
Аудиокодек: MP3
Битрейт аудио: 48.0 kHz, MP3, 2 ch ~128-256 Kbps avg

MediaInfo:

Формат : AVI
Формат/Информация : Audio Video Interleave
Размер файла : 279 Мбайт
Продолжительность : 24 м.
Общий поток : 1623 Кбит/сек
Программа кодирования : VirtualDubModRus 1.5.10.2 (build 2542/release)
Библиотека кодирования : VirtualDubMod build 2542/release
Видео
Идентификатор : 0
Формат : MPEG-4 Visual
Профиль формата : Advanced [email protected]
Параметр BVOP формата : 2
Параметр QPel формата : Нет
Параметр GMC формата : Без точки перехода
Параметр матрицы формата : Default (MPEG)
Режим смешивания : Сжатый битовый поток
Идентификатор кодека : XVID
Идентификатор кодека/Подсказка : XviD
Продолжительность : 24 м.
Битрейт : 1485 Кбит/сек
Ширина : 640 пикселей
Высота : 480 пикселей
Соотношение сторон : 4:3
Частота кадров : 25,000 кадров/сек
Цветовое пространство : YUV
Субдискретизация насыщенности : 4:2:0
Битовая глубина : 8 бит
Тип развёртки : Прогрессивная
Метод сжатия : С потерями
Бит/(Пиксели*Кадры) : 0.193
Размер потока : 256 Мбайт (92%)
Библиотека кодирования : XviD 1.2.1 (UTC 2008-12-04)
Аудио
Идентификатор : 1
Формат : MPEG Audio
Версия формата : Version 1
Профиль формата : Layer 3
Режим : Joint stereo
Расширение режима : MS Stereo
Идентификатор кодека : 55
Идентификатор кодека/Подсказка : MP3
Продолжительность : 24 м.
Вид битрейта : Постоянный
Битрейт : 128 Кбит/сек
Каналы : 2 канала
Частота : 48,0 КГц
Метод сжатия : С потерями
Размер потока : 22,0 Мбайт (8%)
Выравнивание : Разделение по промежуткам
Продолжительность промежутка : 40 мс. (1,00 видеокадр)
Время предзагрузки промежутка : 500 мс.
.
Воронины на NNMСкриншоты:

24/7
Other forum [Profile] [PM]
Display posts from previous:    
Reply to topic

The time now is: Today 04:53

All times are GMT + 3 Hours



You cannot post new topics in this forum
You cannot reply to topics in this forum
You cannot edit your posts in this forum
You cannot delete your posts in this forum
You cannot vote in polls in this forum
You cannot attach files in this forum
You cannot download files in this forum