Today is a free download without charge Download

Discovery: Не пытайтесь повторить! Выпуск № 3 / Discovery: You Have Been Warned (2013) WEB-Rip

Reply to topic
 
Author
Message

UndegraundMen ®

Longevity: 7 years 7 months

Posts: 25145

Торрент-статистика

Post 10-Mar-2013 17:24

[Quote]

Discovery: Не пытайтесь повторить! Выпуск № 3 / Discovery: You Have Been Warned (2013) WEB-Rip- Русское название: Discovery: Не пытайтесь повторить! Выпуск № 3
Оригинальное название: Discovery: You Have Been Warned
Режиссер / Телекомпания: Discovery Channel
Год выпуска: 2013
Жанр: Документальный
Описание:
Программа «Не пытайтесь повторить» показывает 20 лучших роликов, выложенных на YouTube, на которых запечатлены научные эксперименты, поставленные в домашних условиях.
В каждой серии создатели программы демонстрируют умный, смешной или просто странный видеосюжет, а потом ведущие ученые разбирают его в деталях и объясняют суть.
Вместе с ними зрители совершат ряд открытий из области биологии, физики или химии, которые лежат в основе этих опытов. Вы увидите летательный аппарат, работающий на мускульной силе и созданный в Канаде, встретитесь с исследователями космоса из Великобритании, познакомитесь с девушками из США и Новой Зеландии, которые умеют говорить задом наперед, а также услышите рок-группу, где играют роботы!
Для этой программы было отобрано только самое лучшее - от экспериментов, которые люди ставят сами на себе, до головокружительных каскадерских трюков.
В этом выпуске:"Короли разрушения"
Научный подход к рогаткам. Смертоносный солнечный луч. И извечный вопрос: смешается ли это? Все это и многое Вы узнаете посмотрев Не пытайтесь повторить.
Не пытайтесь повторить! на nnm-club
Продолжительность: 00:44:08
Перевод: Одноголосый закадровый, профессиональный
Видеокодек: Xvid
Битрейт видео: ~1500 Кбит/сек
Размер кадра: 854x480
Качество видео: WEB-Rip
Аудиокодек: MP3, 2 канала
Битрейт аудио: 256 Кбит/сек
Скриншоты:
       
       

MediaInfo

Общее
Полное имя : H:\ДОКУМЕНТАЛКИ\Не пытайтесь повторить! 3 выпуск.avi
Формат : AVI
Формат/Информация : Audio Video Interleave
Размер файла : 558 Мбайт
Продолжительность : 44 м.
Общий поток : 1769 Кбит/сек
Программа кодирования : Lavf52.94.0
Видео
Идентификатор : 0
Формат : MPEG-4 Visual
Профиль формата : [email protected]
Параметр BVOP формата : Нет
Параметр QPel формата : Нет
Параметр GMC формата : Без точки перехода
Параметр матрицы формата : Default (H.263)
Идентификатор кодека : XVID
Идентификатор кодека/Подсказка : XviD
Продолжительность : 44 м.
Битрейт : 1500 Кбит/сек
Ширина : 854 пикселя
Высота : 480 пикселей
Соотношение сторон : 16:9
Частота кадров : 25,000 кадров/сек
Цветовое пространство : YUV
Субдискретизация насыщенности : 4:2:0
Битовая глубина : 8 бит
Тип развёртки : Прогрессивная
Метод сжатия : С потерями
Бит/(Пиксели*Кадры) : 0.146
Размер потока : 473 Мбайт (85%)
Библиотека кодирования : XviD 1.2.1 (UTC 2008-12-04)
Аудио
Идентификатор : 1
Формат : MPEG Audio
Версия формата : Version 1
Профиль формата : Layer 3
Режим : Joint stereo
Расширение режима : MS Stereo
Идентификатор кодека : 55
Идентификатор кодека/Подсказка : MP3
Продолжительность : 44 м.
Вид битрейта : Постоянный
Битрейт : 256 Кбит/сек
Каналы : 2 канала
Частота : 48,0 КГц
Метод сжатия : С потерями
Размер потока : 80,8 Мбайт (14%)
Выравнивание : Соединение по промежуткам
Продолжительность промежутка : 24 мс. (0,60 видеокадр)
Библиотека кодирования : LAME3.98.4
Время раздачи: с 9:00 до 21:00 по МСК
Other forum [Profile] [PM]
Display posts from previous:    
Reply to topic

The time now is: Today 23:40

All times are GMT + 3 Hours



You cannot post new topics in this forum
You cannot reply to topics in this forum
You cannot edit your posts in this forum
You cannot delete your posts in this forum
You cannot vote in polls in this forum
You cannot attach files in this forum
You cannot download files in this forum