Today is a free download without charge Download

Предчувствие / Серии: 1-16 из 16 (Алена Семенова) [2013, драма, мистика, DVB]

Reply to topic
 
Author
Message

Omen ®

Longevity: 9 years

Posts: 181086

Торрент-статистика

Post 10-Mar-2013 16:17

[Quote]

Предчувствие
Год выпуска: 2013
Производство: ООО "Авиатор Продакшн"
Жанр: драма, мистика
Продолжительность: ~0:42:00 серия
Субтитры: отсутствуют
Режиссёр: Алена Семенова
В ролях: Елена Морозова, Валентина Талызина, Дмитрий Шевченко, Вера Воронкова, Тимофей Трибунцев, Сергей Мардарь, Денис Сухомлинов, Михаил Гаврилов (II), Дмитрий Ермак, Виктория Маслова
Описание: Валентина Смолина - обычная и ничем не примечательная женщина. Она живет в небольшом городе, работает почтальоном, ей 45 лет. Смолина еще не утратила своей женской привлекательности, но уже не ждет от жизни ничего нового. Всё устоялось в ее судьбе, и резких поворотов не предвидится, но события начинают развиваться мистически... И жизнь Валентины меняется в один день - резко и бесповоротно! После автомобильной аварии Смолина понимает, что может видеть "картинки" и голоса прошлого. И не только прошлого, но и ближайшего будущего! И эти "картинки" и голоса - вещие...
Релиз: -Все раздачи сериала / Сэмпл-Качество: DVB (ABS 1 at 75.0°E)
Формат: MPEG-PS
Видео кодек: MPEG2
Аудио кодек: MP2
Видео: MPEG 2, 720x576 (4:3), 25.000 fps, 5142 Kbps (0.496 bit/pixel)
Аудио: MP2, 48.0 KHz, 2 ch, 192 Kbps, CBR

MediaInfo

ОбщееПолное имя : L:\Раздачи\Предчувствие\Предчувствие.06 [RG_Сериалы_rutracker.org].mpgФормат : MPEG-PSРазмер файла : 1,62 ГбайтПродолжительность : 42 м.Режим общего битрейта : ПеременныйОбщий поток : 5441 Кбит/секБиблиотека кодирования : (c) 1998-2012 Womble Multimedia, Inc. / MPEG Video Wizard DVD 5.0.1.100 (03/2011) / Sep 7 2012
ВидеоИдентификатор : 224 (0xE0)Формат : MPEG VideoВерсия формата : Version 2Профиль формата : [email protected]Параметр BVOP формата : ДаПараметр матрицы формата : ВыборочнаяПараметр GOP формата : VariableПродолжительность : 42 м.Вид битрейта : ПеременныйБитрейт : 5141 Кбит/секМаксимальный битрейт : 15,0 Мбит/секШирина : 720 пикселейВысота : 576 пикселейСоотношение сторон : 4:3Частота кадров : 25,000 кадров/секСтандарт вещания : PALЦветовое пространство : YUVСубдискретизация насыщенности : 4:2:0Битовая глубина : 8 битТип развёртки : ЧересстрочнаяПорядок развёртки : Верхнее поле первоеМетод сжатия : С потерямиБит/(Пиксели*Кадры) : 0.496TimeCode_FirstFrame : 00:00:00:00TimeCode_Source : Group of pictures headerРазмер потока : 1,53 Гбайт (94%)Библиотека кодирования : (c) 1998-2012 Womble Multimedia, Inc. / MPEG Video Wizard DVD 5.0.1.100 (03/2011) / Sep 7 2012
АудиоИдентификатор : 192 (0xC0)Формат : MPEG AudioВерсия формата : Version 1Профиль формата : Layer 2Продолжительность : 42 м.Вид битрейта : ПостоянныйБитрейт : 192 Кбит/секКаналы : 2 каналаЧастота : 48,0 КГцМетод сжатия : С потерямиЗадержка видео : -80 мс.Размер потока : 58,4 Мбайт (4%)
Меню

Скриншоты


Other forum [Profile] [PM]
Display posts from previous:    
Reply to topic

The time now is: Today 18:18

All times are GMT + 3 Hours



You cannot post new topics in this forum
You cannot reply to topics in this forum
You cannot edit your posts in this forum
You cannot delete your posts in this forum
You cannot vote in polls in this forum
You cannot attach files in this forum
You cannot download files in this forum