Today is a free download without charge Download

Только о любви / Серии: 01-02 из 04 (Валерий Девятилов) [2013, Мелодрама, HDTV 1080i]

Reply to topic
 
Author
Message

Omen ®

Longevity: 9 years 1 month

Posts: 181086

Торрент-статистика

Post 10-Mar-2013 08:11

[Quote]

Только о любви
Год выпуска: 2013
Производство: Кинокомпания "Русское"
Жанр: Мелодрама
Продолжительность: ~ 01:30:00 / часть
Субтитры: Отсутствуют
Режиссёр: Валерий Девятилов
В ролях: Карина Разумовская, Артём Федотов, Анна Литкенс, Екатерина Молоховская, Нелли Пшенная, Алексей Медведев, Елена Подкаминская, Виталий Егоров, Виктория Адельфина, Татьяна Казючиц, Игорь Фурманюк, Анатолий Руденко, Павел Трубинер, Александр Арсентьев, Владимир Яковлев, Любовь Руденко, Олег Чудницов, Екатерина Травова, Дарья Лузина, Мария Болонкина, Глеб Сердюков и другие.
Описание: Действие происходит в конце 80-х гг в маленьком городе Заводске. Леся - красивая, одаренная, но очень своенравная девушка. После смерти родителей ее растила старшая сестра Катя – ради Леси она оставила мечту о сцене и работала за троих, чтобы Леся ни в чём не нуждалась.
Вскоре после окончания школы красавицу Лесю позвал замуж влюбленный до безумия поклонник и девушка ответила согласием. Но вместо того, чтобы готовится к свадьбе, героиня целыми днями пропадает на вокзале, с тоской встречает поезда из Москвы и ждёт, что Он всё-таки вернётся…
Все раздачи сериала: http://multi-up.com/840993
Сэмпл: http:///*spam*//forum/tracker.php?f=9&nm==...0%EB%FE%E1%E2%E8
Доп. информация: Релиз -

Рип чистый (Прямой поток). Без посторонних надписей. Выкладывается как есть.
Качество: HDTV 1080i
Контейнер: TS
Видео кодек: AVC
Аудио кодек: AC3
Видео: 1920x1080 (16:9) 25.000 fps 7 856 Kbps, 0.151 bit/pixel
Аудио: MPEG Audio 48000Hz stereo 192 Кбит/сек

Скриншоты


MI

GeneralID : 1 (0x1)Complete name : N:\ВЫКЛАДКА\HDTV\Сериалы\Только о любви (2012, Мелодрама, HDTV) (MYDIMKA)\01 часть.tsFormat : MPEG-TSFile size : 5.38 GiBDuration : 1h 31mnOverall bit rate mode : VariableOverall bit rate : 8 458 Kbps
VideoID : 2911 (0xB5F)Menu ID : 1 (0x1)Format : AVCFormat/Info : Advanced Video CodecFormat profile : [email protected] settings, CABAC : YesFormat settings, ReFrames : 3 framesCodec ID : 27Duration : 1h 31mnBit rate : 7 846 KbpsWidth : 1 920 pixelsHeight : 1 080 pixelsDisplay aspect ratio : 16:9Frame rate : 25.000 fpsColor space : YUVChroma subsampling : 4:2:0Bit depth : 8 bitsScan type : MBAFFBits/(Pixel*Frame) : 0.151Stream size : 4.99 GiB (93%)
AudioID : 2912 (0xB60)Menu ID : 1 (0x1)Format : MPEG AudioFormat version : Version 1Format profile : Layer 2Codec ID : 3Duration : 1h 31mnBit rate mode : ConstantBit rate : 192 KbpsChannel(s) : 2 channelsSampling rate : 48.0 KHzCompression mode : LossyStream size : 125 MiB (2%)Language : Russian

Внимание! Раздача ведётся путём добавления новых выпусков

Внимание! Раздача ведётся путём добавления новых выпусков; при каждом добавлении создётся новый торрент. Чтобы начать докачку нового выпуска, пользователям необходимо сделать следующее:
(1) остановить скачивание,
(2) удалить старый торрент у себя из клиента (старые выпуски удалять не надо),
(3) скачать новый торрент и запустить его у себя в клиенте вместо старого, при этом указать клиенту путь в старую папку куда и должно происходить скачивание новых выпусков.
Ваш клиент при этом должен произвести хеширование (проверку) старой папки (если не производит сам - помогите ему сделать это), и будет докачивать только те выпуски которых у вас ещё нет. Старые выпуски при этом не удаляются, а продолжают раздаваться!
Eсли вы уже удалили старые выпуски, то предотвратить повторную закачку старых выпусков можно, отжав галочку в соответсвующих местах при запуске нового торрента. По возможности, желательно не удалять старые выпуски как можно дольше чтобы релизёр не столько продолжал раздавать старые выпуски, а смог сконцентрироваться на новых.
Other forum [Profile] [PM]
Display posts from previous:    
Reply to topic

The time now is: Today 04:27

All times are GMT + 3 Hours



You cannot post new topics in this forum
You cannot reply to topics in this forum
You cannot edit your posts in this forum
You cannot delete your posts in this forum
You cannot vote in polls in this forum
You cannot attach files in this forum
You cannot download files in this forum