Сегодня идет свободное скачивание без начисления Download

Волга-Волга (1938) HDTV [1080i] [Цветная версия]

Ответить на тему
 
Автор
Сообщение

UndegraundMen ®

Стаж: 5 лет 7 месяцев

Сообщений: 25860

Торрент-статистика

Пост 10-Мар-2013 04:15

[Цитировать]

Волга-Волга (1938) HDTV [1080i]- Русское название: Волга-Волга
Год выпуска: 1938
Жанр: Мьюзикл, Комедия
Режиссер: Григорий Александров
Актеры: Игорь Ильинский, Любовь Орлова, Павел Оленев, Андрей Тутышкин, Сергей Антимонов, Владимир Володин, Мария Миронова, Всеволод Санаев, Эммануил Геллер, Никита Кондратьев

Описание фильма:
Начальник управления мелкой кустарной промышленности Бывалов мечтает о службе в Москве. Он получает распоряжение подготовить к всесоюзному смотру участников художественной самодеятельности. Бывалов считает, что посылать в Москву некого, несмотря на то, что в городе есть два творческих коллектива. В конце концов каждая группа отправляется по Волге в столицу своим путем.

Дата мировой премьеры: 24 апреля 1938
Дата выхода DVD релиза: 28 января 2010, «Новый Диск»
Продолжительность: 01:38:53
Качество видео: HDTV 1080i
Контейнер: MKV -> пересобран из TS
Видеокодек: MPEG-4 AVC/H.264
Видео: H.264, 8094 Кбит/с, 1920x1080, 25 fps
Аудио: Русский: AC3, 5.1, 448 Кбит/с, 48 Khz, 16 bit
Релиз от: Релиз группа :

Рецензия, отзыв о фильме

Полный вперед!
Фильм еще довоенных времен давно уже стал классикой советского кинематографа. Жанр «музыкальная комедия» сейчас практически не снимают. Весьма интересно посмотреть признанную десятилетиями работу подобного рода. Плюс ко всему «Волга-волга» любимый фильм Сталина, что подогревает интерес к ленте.
Наверное, мало я видел мюзиклов или фильмов 30-х годов, но что меня поразило, так это то, что даже к начальным титрам были специально написаны песни (поётся об актёрах и их ролях). Может ничего сверхъестественного в этом нет, но на моей памяти я впервые вижу подобный приём. Видать он просто устарел со временем. Вот юмор не устарел и по сей день. От души посмеяться вам помогут курьёзные ситуации и диалоги героев.
Блистательная игра актёров. Может сейчас отдаленно и напоминает цирковое представление, но тогда снимали по другим устоям. Особо запоминается Игорь Ильинский в роли Бывалова (а какая символичная фамилия). Что называется от души показал бюрократа и карьериста. Так же веселит дворник, отплясывающий калинку и другие колоритные персонажи.
Кое что о колоризованной версии. Лично я против неё, но смотреть или нет — это, конечно, ваше дело. Но если вы решитесь, то настоятельно рекомендую сперва посмотреть (либо освежить в памяти) оригинальную, черно-белую версию. Ибо оператор работал и подбирал световое освещение с учетом формата того времени. Если смотреть «разукрашку», то можно неправильно понять как режиссёрскую, так и операторскую задумку. Либо вообще её не увидеть.
Кстати, есть один занятный факт о фильме. В 1942 году Сталин пригласил посла США Гарримана и прибывшего в СССР помощника президента Гарри Гопкинса посмотреть вместе с ним фильм «Волга-Волга». Гостям фильм понравился, и Сталин якобы в знак особого расположения подарил через Гопкинса президенту Рузвельту копию фильма. Рузвельт посмотрел фильм и не понял, почему Сталин прислал именно его. Тогда он попросил перевести слова песен. Когда прозвучала песня, посвящённая пароходу «Севрюга»: «Америка России подарила пароход: / С носа пар, колёса сзади, / И ужасно, и ужасно, / И ужасно тихий ход», он воскликнул: «Вот теперь понятно! Сталин упрекает нас за тихий ход, за то, что мы до сих пор не открыли второй фронт». По другой версии, Рузвельт подумал, что это намёк на низкое качество поставок по Ленд-лизу.
8 из 10
Классика советского кинематографа. И этим всё сказано!

MediaInfo

Общее
Уникальный идентификатор : 215621104824226922278213525393620390077 (0xA2371D3EFB789DC2A2139CA14A1CD0BD)
Полное имя : D:\Video\NewMovies\Volga-Volga.HDTV.1080i.mkv
Формат : Matroska
Версия формата : Version 2
Размер файла : 6,02 Гбайт
Продолжительность : 1 ч. 38 м.
Общий поток : 8716 Кбит/сек
Дата кодирования : UTC 2013-03-08 20:12:29
Программа кодирования : mkvmerge v5.4.0 ('Piper') built on Mar 10 2012 13:34:39
Библиотека кодирования : libebml v1.2.3 + libmatroska v1.3.0
Видео
Идентификатор : 1
Формат : AVC
Формат/Информация : Advanced Video Codec
Профиль формата : [url=mailto:[email protected]][email protected][/url]
Параметр CABAC формата : Да
Параметр ReFrames формата : 3 кадра
Параметр GOP формата : M=4, N=28
Идентификатор кодека : V_MPEG4/ISO/AVC
Продолжительность : 1 ч. 38 м.
Битрейт : 8094 Кбит/сек
Ширина : 1920 пикселей
Высота : 1080 пикселей
Соотношение сторон : 16:9
Частота кадров : 50,000 кадров/сек
Частота кадров в оригинале : 25,000 кадров/сек
Стандарт вещания : Component
Цветовое пространство : YUV
Субдискретизация насыщенности : 4:2:0
Битовая глубина : 8 бит
Тип развёртки : Чересстрочная
Порядок развёртки : Верхнее поле первое
Бит/(Пиксели*Кадры) : 0.078
Размер потока : 5,59 Гбайт (93%)
Язык : Russian
Default : Да
Forced : Нет
Основные цвета : BT.709-5, BT.1361, IEC 61966-2-4, SMPTE RP177
Характеристики трансфера : BT.709-5, BT.1361
Коэффициенты матрицы : BT.709-5, BT.1361, IEC 61966-2-4 709, SMPTE RP177
Аудио
Идентификатор : 2
Формат : AC-3
Формат/Информация : Audio Coding 3
Расширение режима : CM (complete main)
Идентификатор кодека : A_AC3
Продолжительность : 1 ч. 38 м.
Вид битрейта : Постоянный
Битрейт : 448 Кбит/сек
Каналы : 6 каналов
Расположение каналов : Front: L C R, Side: L R, LFE
Частота : 48,0 КГц
Битовая глубина : 16 бит
Метод сжатия : С потерями
Размер потока : 317 Мбайт (5%)
Заголовок : Russian AC3 448 kbps - Mosfilm
Язык : Russian
Default : Да
Forced : Нет
Скриншоты:
         
         
Время раздачи: с 10:00 до 20:00 (GMT+2) - до 10 скачавшихНе забываем говорить
Вне форума [Профиль] [ЛС]
Показать сообщения:    
Ответить на тему

Текущее время: Сегодня 19:59

Часовой пояс: GMT + 3



Вы не можете начинать темы
Вы не можете отвечать на сообщения
Вы не можете редактировать свои сообщения
Вы не можете удалять свои сообщения
Вы не можете голосовать в опросах
Вы не можете прикреплять файлы к сообщениям
Вы не можете скачивать файлы