Today is a free download without charge Download

Только о любви / Серии: 01-02 из 04 (Валерий Девятилов) [2013, Мелодрама, DVB]

Reply to topic
 
Author
Message

Omen ®

Longevity: 9 years

Posts: 181086

Торрент-статистика

Post 10-Mar-2013 03:34

[Quote]

Только о любви
Год выпуска: 2013
Производство: Кинокомпания "Русское"
Жанр: Мелодрама
Продолжительность: ~ 01:30:00 / часть
Субтитры: Отсутствуют
Режиссёр: Валерий Девятилов
В ролях: Карина Разумовская, Артём Федотов, Анна Литкенс, Екатерина Молоховская, Нелли Пшенная, Алексей Медведев, Елена Подкаминская, Виталий Егоров, Виктория Адельфина, Татьяна Казючиц, Игорь Фурманюк, Анатолий Руденко, Павел Трубинер, Александр Арсентьев, Владимир Яковлев, Любовь Руденко, Олег Чудницов, Екатерина Травова, Дарья Лузина, Мария Болонкина, Глеб Сердюков и другие.
Описание: Действие происходит в конце 80-х гг в маленьком городе Заводске. Леся - красивая, одаренная, но очень своенравная девушка. После смерти родителей ее растила старшая сестра Катя – ради Леси она оставила мечту о сцене и работала за троих, чтобы Леся ни в чём не нуждалась.
Вскоре после окончания школы красавицу Лесю позвал замуж влюбленный до безумия поклонник и девушка ответила согласием. Но вместо того, чтобы готовится к свадьбе, героиня целыми днями пропадает на вокзале, с тоской встречает поезда из Москвы и ждёт, что Он всё-таки вернётся…
Все раздачи сериала: http://multi-up.com/841027
Сэмпл: http:///*spam*//forum/tracker.php?f=9&nm==...0%EB%FE%E1%E2%E8
Доп. информация: Релиз -

Рип чистый (Прямой поток). Без посторонних надписей. Выкладывается как есть.
Качество: DVB
Формат: MPG
Видео кодек: MPG2
Аудио кодек: MP2
Видео: 720x576 @ 768x576 (4:3) 25.00fps 5 801 Kbps, 0.560 bit/pixel
Аудио: MPEG Audio 48000Hz stereo 192 Кбит/сек

Скриншоты


MI

GeneralComplete name : M:\ВЫКЛАДКА\DVB\Сериалы\Только о любви (2012, Мелодрама, DVB) (MYDIMKA)\01 часть.mpgFormat : MPEG-PSFile size : 3.86 GiBDuration : 1h 30mnOverall bit rate mode : VariableOverall bit rate : 6 118 Kbps
VideoID : 224 (0xE0)Format : MPEG VideoFormat version : Version 2Format profile : [email protected] settings, BVOP : YesFormat settings, Matrix : CustomFormat settings, GOP : VariableDuration : 1h 30mnBit rate mode : VariableBit rate : 5 804 KbpsMaximum bit rate : 15.0 MbpsWidth : 720 pixelsHeight : 576 pixelsDisplay aspect ratio : 4:3Frame rate : 25.000 fpsStandard : PALColor space : YUVChroma subsampling : 4:2:0Bit depth : 8 bitsScan type : InterlacedScan order : Top Field FirstCompression mode : LossyBits/(Pixel*Frame) : 0.560Stream size : 3.67 GiB (95%)
AudioID : 192 (0xC0)Format : MPEG AudioFormat version : Version 1Format profile : Layer 2Duration : 1h 30mnBit rate mode : ConstantBit rate : 192 KbpsChannel(s) : 2 channelsSampling rate : 48.0 KHzCompression mode : LossyDelay relative to video : 2msStream size : 124 MiB (3%)

Внимание! Раздача ведётся путём добавления новых выпусков

Внимание! Раздача ведётся путём добавления новых выпусков; при каждом добавлении создётся новый торрент. Чтобы начать докачку нового выпуска, пользователям необходимо сделать следующее:
(1) остановить скачивание,
(2) удалить старый торрент у себя из клиента (старые выпуски удалять не надо),
(3) скачать новый торрент и запустить его у себя в клиенте вместо старого, при этом указать клиенту путь в старую папку куда и должно происходить скачивание новых выпусков.
Ваш клиент при этом должен произвести хеширование (проверку) старой папки (если не производит сам - помогите ему сделать это), и будет докачивать только те выпуски которых у вас ещё нет. Старые выпуски при этом не удаляются, а продолжают раздаваться!
Eсли вы уже удалили старые выпуски, то предотвратить повторную закачку старых выпусков можно, отжав галочку в соответсвующих местах при запуске нового торрента. По возможности, желательно не удалять старые выпуски как можно дольше чтобы релизёр не столько продолжал раздавать старые выпуски, а смог сконцентрироваться на новых.
Other forum [Profile] [PM]
Similar theme
Forum Topic Author Torrent Replies Last Post
./templates/default/images/folder_dl.gif Компьютерная литература Павел Орленко, Петр Евдокимов | C++ на примерах. Практика, практика и только практика (2019) [PDF] }{@R0N
1 | 0

0 | 1279

1

2019-03-28 22:34
}{@R0N Latest
Display posts from previous:    
Reply to topic

The time now is: Today 18:35

All times are GMT + 3 Hours



You cannot post new topics in this forum
You cannot reply to topics in this forum
You cannot edit your posts in this forum
You cannot delete your posts in this forum
You cannot vote in polls in this forum
You cannot attach files in this forum
You cannot download files in this forum