Today is a free download without charge Download

В хлам / Smashed ( Джеймс Понсольдт / James Ponsoldt ) (2012, Драма, Комедия ) BDRip [1080p]

Reply to topic
 
Author
Message

Витек1 ®

Gender:

Longevity: 8 years 3 months

Posts: 451

Location: Житомир

Торрент-статистика

Post 09-Mar-2013 22:29

[Quote]

В хлам / Smashed- Русское название: В хлам
Оригинальное название: Smashed
Год выпуска: 2012
Производство: США, Super Crispy Entertainment
Жанр: Драма, Комедия
Перевод: Многоголосый закадровый, профессиональный
Субтитры: Вшитые отключаемые
Язык субтитров: Украинский, английский-Режиссер: Джеймс Понсольдт / James Ponsoldt
Актеры: Мэри Элизабет Уинстэд, Аарон Пол, Октавия Спенсер, Ник Офферман, Меган Маллалли, Мэри Кэй Плэйс, Кайл Галлнер, Бри Тёрнер, Маккензи Дэвис, Патти Эллисон
Описание фильма:
Супруги-алкоголики катятся по наклонной, пока однажды жена не решает обратиться за помощью в медицинский центр.-
Дата мировой премьеры: 22 января 2012
Дата выхода DVD релиза: 12 марта 2013, «Columbia/Sony»-Продолжительность: 01:21:06
Качество видео: BDRip 1080p
Видеокодек: MPEG-4 AVC/H.264
Видео: H.264, 11.1 Мбит/с, 1920x1040, 23,976 кадра/сек
Аудио #1: Русский: DTS, 5.1, 1536 Кбит/с, 48 kHz, 16 bit - многоголосый закадровый
Аудио #2: Английский: DTS, 5.1, 1536 Кбит/с, 48 kHz, 24 bit
Сохранены оригинальные чаптеры как на Blu-Ray
Релиз группа:

Скриншот с названием фильма:

 

MediaInfo:

Общее
Уникальный идентификатор : 232313276438931890094226115959515489245 (0xAEC5E8D8BE5C8857819C2DD046EFA3DD)
Полное имя : D:\Video\NewMovies\Smashed.2012.BDRip.1080p.dts.Rus.Eng.mkv
Формат : Matroska
Версия формата : Version 2
Размер файла : 8,14 Гбайт
Продолжительность : 1 ч. 21 м.
Общий поток : 14,4 Мбит/сек
Название фильма : IRONCLUB
Дата кодирования : UTC 2013-03-06 00:56:32
Программа кодирования : mkvmerge v5.4.0 ('Piper') built on Mar 10 2012 13:34:39
Библиотека кодирования : libebml v1.2.3 + libmatroska v1.3.0
Видео
Идентификатор : 1
Формат : AVC
Формат/Информация : Advanced Video Codec
Профиль формата : [url=mailto:[email protected]][email protected][/url]
Параметр CABAC формата : Да
Параметр ReFrames формата : 4 кадра
Идентификатор кодека : V_MPEG4/ISO/AVC
Продолжительность : 1 ч. 21 м.
Битрейт : 11,1 Мбит/сек
Ширина : 1920 пикселей
Высота : 1040 пикселей
Соотношение сторон : 16:9
Частота кадров : 23,976 кадра/сек
Цветовое пространство : YUV
Субдискретизация насыщенности : 4:2:0
Битовая глубина : 8 бит
Тип развёртки : Прогрессивная
Бит/(Пиксели*Кадры) : 0.231
Размер потока : 6,27 Гбайт (77%)
Заголовок : Smashed.2012.1080p.BluRay.DTS.x264-DSS
Библиотека кодирования : x264 core 129 r2245 bc13772
Настройки программы : cabac=1 / ref=4 / deblock=1:-3:-3 / analyse=0x3:0x133 / me=tesa / subme=10 / psy=1 / psy_rd=0.95:0.00 / mixed_ref=1 / me_range=16 / chroma_me=1 / trellis=2 / 8x8dct=1 / cqm=0 / deadzone=21,11 / fast_pskip=0 / chroma_qp_offset=-2 / threads=12 / lookahead_threads=2 / sliced_threads=0 / nr=0 / decimate=1 / interlaced=0 / bluray_compat=0 / constrained_intra=0 / bframes=13 / b_pyramid=2 / b_adapt=2 / b_bias=0 / direct=3 / weightb=1 / open_gop=0 / weightp=2 / keyint=250 / keyint_min=23 / scenecut=40 / intra_refresh=0 / rc_lookahead=60 / rc=crf / mbtree=1 / crf=14.0 / qcomp=0.60 / qpmin=0 / qpmax=69 / qpstep=4 / ip_ratio=1.40 / aq=1:0.80
Язык : English
Default : Да
Forced : Да
Аудио #1
Идентификатор : 2
Формат : DTS
Формат/Информация : Digital Theater Systems
Идентификатор кодека : A_DTS
Продолжительность : 1 ч. 21 м.
Вид битрейта : Постоянный
Битрейт : 1510 Кбит/сек
Каналы : 6 каналов
Расположение каналов : Front: L C R, Side: L R, LFE
Частота : 48,0 КГц
Битовая глубина : 16 бит
Метод сжатия : С потерями
Размер потока : 876 Мбайт (11%)
Заголовок : DTS 5.1 @ 1536 kbps - MVO, R5
Язык : Russian
Default : Да
Forced : Нет
Аудио #2
Идентификатор : 3
Формат : DTS
Формат/Информация : Digital Theater Systems
Идентификатор кодека : A_DTS
Продолжительность : 1 ч. 21 м.
Вид битрейта : Постоянный
Битрейт : 1510 Кбит/сек
Каналы : 6 каналов
Расположение каналов : Front: L C R, Side: L R, LFE
Частота : 48,0 КГц
Битовая глубина : 24 бит
Метод сжатия : С потерями
Размер потока : 876 Мбайт (11%)
Заголовок : DTS 5.1 @ 1536 kbps
Язык : English
Default : Нет
Forced : Нет
Текст #1
Идентификатор : 4
Формат : UTF-8
Идентификатор кодека : S_TEXT/UTF8
Идентификатор кодека/Информация : UTF-8 Plain Text
Заголовок : R5
Язык : Ukrainian
Default : Нет
Forced : Нет
Текст #2
Идентификатор : 5
Формат : UTF-8
Идентификатор кодека : S_TEXT/UTF8
Идентификатор кодека/Информация : UTF-8 Plain Text
Язык : English
Default : Нет
Forced : Нет
Меню
00:00:00.000 : en:00:00:00.000
00:07:08.928 : en:00:07:08.928
00:14:22.487 : en:00:14:22.487
00:19:19.867 : en:00:19:19.867
00:23:37.207 : en:00:23:37.207
00:27:38.490 : en:00:27:38.490
00:32:14.141 : en:00:32:14.141
00:36:15.465 : en:00:36:15.465
00:40:01.107 : en:00:40:01.107
00:43:55.007 : en:00:43:55.007
00:48:45.506 : en:00:48:45.506
00:50:50.714 : en:00:50:50.714
00:54:59.421 : en:00:54:59.421
00:59:33.653 : en:00:59:33.653
01:05:20.583 : en:01:05:20.583
01:10:56.085 : en:01:10:56.085

Скриншоты

Скриншоты:
         
         
Не забываем говорить

_________________
Скачал сам, дай скачать другому!!!Не забудь сказать -
Other forum [Profile] [PM]

Dracula

Longevity: 7 years 5 months

Posts: 11218

Торрент-статистика

Post 10-Mar-2013 21:43 (after 23 hours)

Топик был перенесен из форума Фильмы 2012 в форум Зарубежное кино (DVD)


DeadMmau5
 

Dracula

Longevity: 7 years 5 months

Posts: 11218

Торрент-статистика

Post 02-May-2013 10:20 (after 1 month 23 days)

Топик был перенесен из форума Зарубежное кино (DVD) в форум Зарубежное кино (HD Video)


RUGUI
 
Display posts from previous:    
Reply to topic

The time now is: Today 01:33

All times are GMT + 3 Hours



You cannot post new topics in this forum
You cannot reply to topics in this forum
You cannot edit your posts in this forum
You cannot delete your posts in this forum
You cannot vote in polls in this forum
You cannot attach files in this forum
You cannot download files in this forum