Today is a free download without charge Download

Клубничный рай / Серии: 01-02 из 02 (Сергей Гиргель) [2012, Мелодрама, HDTV, 1080i]

Reply to topic
 
Author
Message

Omen ®

Longevity: 9 years

Posts: 181086

Торрент-статистика

Post 09-Mar-2013 14:41

[Quote]

Клубничный рай
Год выпуска: 2012
Производство: "Медиапрофсоюз"
Жанр: Мелодрама
Продолжительность: ~ 01:30:00 / серия
Субтитры: Отсутствуют
Режиссёр: Сергей Гиргель
В ролях: Виктор Тереля, Ольга Тумайкина, Борис Щербаков, Эвелина Сакуро, Денис Паршин, Анастасия Баланчук, Сергей Новицкий, Сергей Власов (IV), Виктор Богушевич и другие.
Описание: Сын городских интеллигентов и дочь городских «выходцев из деревни» подали заявление в ЗАГС. Родители молодых счастливы. Пока идут приготовления к свадьбе и ремонт в квартире, будущие родственники решают пожить некоторое время на даче, чтобы «притереться» и лучше узнать друг друга. Но, оказывается, жить под одной крышей далеко не так приятно, как казалось со стороны. Каждый день между сватами возникают конфликты «на пустом месте», и едва одну ссору удается погасить, тут же разгорается другая.
Но все-таки настоящая любовь примиряет «слишком разных людей». Оказывается, обе семьи хотят видеть своих детей счастливыми, но каждый по-своему. И, наконец, на враждующие семейства сходит благодать.
Сэмпл: http://multi-up.com/840719
Доп. информация: Релиз -

Рип чистый (Прямой поток). Без посторонних надписей. Выкладывается как есть.
Качество: HDTV 1080i
Контейнер: TS
Видео кодек: AVC
Аудио кодек: AC3
Видео: 1920x1080 (16:9) 25.000 fps 7 856 Kbps, 0.151 bit/pixel
Аудио: MPEG Audio 48000Hz stereo 192 Кбит/сек

Скриншоты


MI

GeneralID : 1 (0x1)Complete name : N:\ВЫКЛАДКА\HDTV\Сериалы\Клубничный рай (2012, Комедия, Мелодрама, HDTV) (MYDIMKA)\01 серия.tsFormat : MPEG-TSFile size : 5.78 GiBDuration : 1h 37mnOverall bit rate mode : VariableOverall bit rate : 8 447 Kbps
VideoID : 2911 (0xB5F)Menu ID : 1 (0x1)Format : AVCFormat/Info : Advanced Video CodecFormat profile : [email protected] settings, CABAC : YesFormat settings, ReFrames : 3 framesFormat settings, GOP : M=3, N=30Codec ID : 27Duration : 1h 37mnBit rate : 7 836 KbpsWidth : 1 920 pixelsHeight : 1 080 pixelsDisplay aspect ratio : 16:9Frame rate : 25.000 fpsColor space : YUVChroma subsampling : 4:2:0Bit depth : 8 bitsScan type : MBAFFBits/(Pixel*Frame) : 0.151Stream size : 5.36 GiB (93%)
AudioID : 2912 (0xB60)Menu ID : 1 (0x1)Format : MPEG AudioFormat version : Version 1Format profile : Layer 2Codec ID : 3Duration : 1h 37mnBit rate mode : ConstantBit rate : 192 KbpsChannel(s) : 2 channelsSampling rate : 48.0 KHzCompression mode : LossyStream size : 135 MiB (2%)Language : Russian
Other forum [Profile] [PM]
Display posts from previous:    
Reply to topic

The time now is: Today 18:14

All times are GMT + 3 Hours



You cannot post new topics in this forum
You cannot reply to topics in this forum
You cannot edit your posts in this forum
You cannot delete your posts in this forum
You cannot vote in polls in this forum
You cannot attach files in this forum
You cannot download files in this forum