Today is a free download without charge Download

Тайны следствия-10 / Серии: 1-24 из 24 (Наталья Савченко, Михаил Вассербаум) [2011, Детектив, SATRip - AVC]

Reply to topic
 
Author
Message

Omen ®

Longevity: 9 years 1 month

Posts: 181086

Торрент-статистика

Post 09-Mar-2013 10:39

[Quote]

Тайны следствия-10- Год выпуска: 2011
Производство: "Студия "Панорама", "Форвард-Фильм"
Жанр: Детектив
Продолжительность: ~ 00:43:00
Субтитры: нет-Режиссёр: Наталья Савченко, Михаил Вассербаум-В ролях: Анна Ковальчук, Вячеслав Захаров, Сергей Барышев, Александр Новиков , Светлана Щедрина, Александр Шпилько, Юлия Яковлева, Игорь Григорьев , Андрей Шарков, Олег Алмазов, Мирослав Малич, Дмитрий Поднозов, Анна Жукова, Ольга Кожевникова-Описание: Районный следственный комитет под руководством Николая Филонова в тесном сотрудничестве с РУВД не смыкает глаз на страже закона. Большая часть их совместных успехов связана с работой старшего следователя Швецовой. Мария, как всегда, скрупулёзно расследует каждое дело, она добивается успеха даже тогда, когда её коллеги только разводят руками. Швецова не боится брать инициативу на себя и предпочитает сама выезжать на места происшествия, опрашивать свидетелей и собирать улики. Так, Маше при помощи Курочкина и Винокурова удаётся раскрыть на первый взгляд совершенно необъяснимое убийство домработницы, погибшей прямо на трудовом посту, в квартире своих нанимателей, и найти причины громкого публичного убийства ведущего скандальной телепередачи «Институт развода» Андрея Аркадина, застреленного одним из зрителей в студии во время прямого эфира… Казалось бы, Филонов должен буквально на руках носить такого образцового следователя, но её успехи нравятся отнюдь не всем, а принципиальная неуживчивая натура Швецовой причиняет немало беспокойства начальству, поэтому каждое дело для Маши может стать последним.-Доп. Информация: Спасибо CLIPMAN за предоставленный исходник!-Любая реклама ОТСУТСТВУЕТ!!!--Качество: SATRip - AVC
Формат: MKV
Видео кодек: H.264
Аудио кодек: AC3
Видео: x264, 720 х 432**768 х 432 (1.7778=16:9), 25,000 кадр/сек, ~ 1537 Кбит/сек, ~ 0.198 bit/pixel
Аудио: AC3, 48.0 KHz, 2 канала(ов), 256 kbs

MI

Complete name : Тайны следствия 10.01 серия.2012.SATRip-AVC.Metla111.mkv
Format : Matroska
Format version : Version 2
File size : 558 MiB
Duration : 43mn 25s
Overall bit rate : 1 795 Kbps
Encoded date : UTC 2013-02-15 06:46:43
Writing application : mkvmerge v5.8.0 ('No Sleep / Pillow') built on Sep 2 2012 15:37:04
Writing library : libebml v1.2.3 + libmatroska v1.3.0
Video
ID : 1
Format : AVC
Format/Info : Advanced Video Codec
Format profile : [email protected]
Format settings, CABAC : Yes
Format settings, ReFrames : 10 frames
Codec ID : V_MPEG4/ISO/AVC
Duration : 43mn 25s
Bit rate : 1 537 Kbps
Width : 720 pixels
Height : 432 pixels
Display aspect ratio : 16:9
Frame rate mode : Constant
Frame rate : 25.000 fps
Color space : YUV
Chroma subsampling : 4:2:0
Bit depth : 8 bits
Scan type : Progressive
Bits/(Pixel*Frame) : 0.198
Stream size : 467 MiB (84%)
Writing library : x264 core 125 r2208 d9d2288
Encoding settings : cabac=1 / ref=10 / deblock=1:-3:-3 / analyse=0x3:0x113 / me=umh / subme=9 / psy=1 / psy_rd=1.00:0.20 / mixed_ref=1 / me_range=32 / chroma_me=1 / trellis=2 / 8x8dct=1 / cqm=0 / deadzone=21,11 / fast_pskip=1 / chroma_qp_offset=-3 / threads=12 / lookahead_threads=2 / sliced_threads=0 / nr=0 / decimate=0 / interlaced=0 / bluray_compat=0 / constrained_intra=0 / bframes=8 / b_pyramid=2 / b_adapt=2 / b_bias=0 / direct=3 / weightb=1 / open_gop=0 / weightp=2 / keyint=250 / keyint_min=25 / scenecut=40 / intra_refresh=0 / rc=2pass / mbtree=0 / bitrate=1537 / ratetol=1.0 / qcomp=0.70 / qpmin=0 / qpmax=69 / qpstep=4 / cplxblur=20.0 / qblur=0.5 / ip_ratio=1.40 / pb_ratio=1.30 / aq=1:1.00
Default : Yes
Forced : No
Color primaries : BT.601 PAL
Transfer characteristics : BT.470 System B, BT.470 System G
Matrix coefficients : BT.601
Audio
ID : 2
Format : AC-3
Format/Info : Audio Coding 3
Mode extension : CM (complete main)
Format settings, Endianness : Big
Codec ID : A_AC3
Duration : 43mn 25s
Bit rate mode : Constant
Bit rate : 256 Kbps
Channel(s) : 2 channels
Channel positions : Front: L R
Sampling rate : 48.0 KHz
Bit depth : 16 bits
Compression mode : Lossy
Stream size : 79.5 MiB (14%)
Default : Yes
Forced : No

Log - x264

raw [info]: 720x432p 16:15 @ 25/1 fps (cfr)
x264 [info]: using SAR=16/15
x264 [info]: using cpu capabilities: MMX2 SSE2Fast SSSE3 FastShuffle SSE4.2 AVX XOP FMA4 FMA3 SSEMisalign LZCNT BMI1 TBM
x264 [info]: profile High, level 3.1
x264 [info]: frame I:521 Avg QP:16.29 size: 51910
x264 [info]: frame P:15199 Avg QP:18.79 size: 17666
x264 [info]: frame B:49423 Avg QP:20.12 size: 4150
x264 [info]: consecutive B-frames: 2.3% 3.4% 10.4% 26.8% 19.8% 31.7% 3.7% 0.9% 1.0%
x264 [info]: mb I I16..4: 14.1% 64.1% 21.9%
x264 [info]: mb P I16..4: 0.6% 7.4% 1.3% P16..4: 37.0% 31.4% 19.7% 0.0% 0.0% skip: 2.7%
x264 [info]: mb B I16..4: 0.0% 0.3% 0.1% B16..8: 37.0% 10.4% 3.0% direct: 5.1% skip:44.0% L0:34.8% L1:44.1% BI:21.1%
x264 [info]: 8x8 transform intra:75.5% inter:45.9%
x264 [info]: direct mvs spatial:97.5% temporal:2.5%
x264 [info]: coded y,uvDC,uvAC intra: 97.7% 64.9% 36.1% inter: 27.5% 18.9% 4.5%
x264 [info]: i16 v,h,dc,p: 10% 5% 41% 44%
x264 [info]: i8 v,h,dc,ddl,ddr,vr,hd,vl,hu: 15% 12% 9% 7% 11% 12% 11% 11% 12%
x264 [info]: i4 v,h,dc,ddl,ddr,vr,hd,vl,hu: 15% 11% 3% 8% 14% 14% 13% 11% 11%
x264 [info]: i8c dc,h,v,p: 31% 32% 23% 13%
x264 [info]: Weighted P-Frames: Y:3.1% UV:1.2%
x264 [info]: ref P L0: 45.1% 14.2% 19.2% 4.4% 5.4% 2.8% 3.6% 1.5% 2.0% 1.4% 0.3% 0.0%
x264 [info]: ref B L0: 79.0% 10.9% 3.5% 2.2% 1.3% 1.3% 0.9% 0.5% 0.3%
x264 [info]: ref B L1: 95.6% 4.4%
x264 [info]: kb/s:1537.03

Скриншоты

-
Other forum [Profile] [PM]
Similar theme
Forum Topic Author Torrent Replies Last Post
./templates/default/images/folder_dl.gif Отечественные cериалы Тайный город / Сезон: 1 / Серии: 1-8 из 8 (Александр Мохов) [2014 г., фэнтези,, DVDRip] Omen
1 | 0

0 | 1122

6

2014-09-30 11:00
Omen Latest
./templates/default/images/folder_dl.gif Приключения и квесты Secrets of the Dark: The Flower of Shadow Collector\'s Edition / Тайны Тьмы: Цветок Теней. Коллекционное издание [P] [RUS / ENG] (2014) Omen
2 | 0

0 | 2226

23

2015-06-11 12:04
Omen Latest
Display posts from previous:    
Reply to topic

The time now is: Today 23:19

All times are GMT + 3 Hours



You cannot post new topics in this forum
You cannot reply to topics in this forum
You cannot edit your posts in this forum
You cannot delete your posts in this forum
You cannot vote in polls in this forum
You cannot attach files in this forum
You cannot download files in this forum