Today is a free download without charge Download

Бальзаковский возраст, или Все мужики сво… 5 лет спустя (серии 01-04 из 04) (2013) SATRip

Reply to topic
 
Author
Message

UndegraundMen ®

Longevity: 8 years 9 months

Posts: 25145

Торрент-статистика

Post 08-Mar-2013 23:04

[Quote]

Бальзаковский возраст, или Все мужики сво… 5 лет спустя (серии 01-04 из 04) (2013) SATRip- Русское название: Бальзаковский возраст, или Все мужики сво… 5 лет спустя
Год выпуска: 2013
Жанр: Комедия, Мелодрама

Режиссер: Дмитрий Фикс
Актеры: Юлия Меньшова, Жанна Эппле, Алика Смехова, Лада Денс, Андрей Соколов, Борис Клюев, Ивар Калныньш, Вера Алентова, Григорий Антипенко, Михаил Полицеймако, Раиса Рязанова, Владимир Меньшов, Оскар Кучера, Ярослав Бойко, Вячеслав Разбегаев, Мария Берсенева, Андрей Ургант, Лидия Арефьева
Описание фильма:
Прошло пять лет с момента расставания с героинями сериала «Бальзаковский возраст или все мужики сво…». Тогда казалось, что их личная жизнь, наконец, наладилась, но, оказывается, что это не совсем так…
Вера, Соня, Алла и Юля по разным причинам расстались со своими мужчинами, однако, они не хотят сдаваться и продолжат бороться за свое счастье. А раз милости от судьбы ждать не приходится, женщины будут «ковать» свои судьбы собственными руками.
Продолжительность: 4 серии по ~ 00:45:00
Качество видео: SATRip
Видеокодек: Xvid
Битрейт видео: ~1495 kb/s
Размер кадра: 720x400
Аудиокодек: MP3 2.0
Битрейт аудио: 128 kb/s

MediaInfo

Полное имя : I:\Bal'zakovskiy.vozrast.5.let.spustya\Baljzakovskiy.vozrast.5.let.spustya.(1.seriya).2013.avi
Формат : AVI
Формат/Информация : Audio Video Interleave
Размер файла : 529 Мбайт
Продолжительность : 45 м.
Общий поток : 1633 Кбит/сек
Программа кодирования : VirtualDubMod 1.5.10.2 (build 2540/release)
Библиотека кодирования : VirtualDub build 32507/release
Видео
Идентификатор : 0
Формат : MPEG-4 Visual
Профиль формата : Advanced [email protected]
Параметр BVOP формата : 2
Параметр QPel формата : Нет
Параметр GMC формата : Без точки перехода
Параметр матрицы формата : Default (MPEG)
Идентификатор кодека : XVID
Идентификатор кодека/Подсказка : XviD
Продолжительность : 45 м.
Битрейт : 1495 Кбит/сек
Ширина : 720 пикс.
Высота : 400 пикс.
Соотношение сторон : 16:9
Частота кадров : 25,000 кадр/сек
Цветовое пространство : YUV
Подвыборка цветности : 4:2:0
Битовая глубина : 8 бит
Тип развёртки : Прогрессивная
Метод сжатия : С потерями
Бит/(Пиксели*Кадры) : 0.208
Размер потока : 484 Мбайт (92%)
Библиотека кодирования : XviD 64
Аудио
Идентификатор : 1
Формат : MPEG Audio
Версия формата : Version 1
Профиль формата : Layer 3
Режим : Joint stereo
Расширение режима : MS Stereo
Идентификатор кодека : 55
Идентификатор кодека/Подсказка : MP3
Продолжительность : 45 м.
Вид битрейта : Постоянный
Битрейт : 128 Кбит/сек
Канал(ы) : 2 канала(ов)
Частота : 48,0 КГц
Метод сжатия : С потерями
Размер потока : 41,4 Мбайт (8%)
Выравнивание : Соединение по промежуткам
Продолжительность промежутка : 40 мс. (1,00 видеокадр)
Время предзагрузки промежутка : 504 ms
Библиотека кодирования : LAME3.90.3
Скриншоты:
       
Время раздачи: 24/7 (до 10 скачавших)
Other forum [Profile] [PM]
Display posts from previous:    
Reply to topic

The time now is: Today 23:21

All times are GMT + 3 Hours



You cannot post new topics in this forum
You cannot reply to topics in this forum
You cannot edit your posts in this forum
You cannot delete your posts in this forum
You cannot vote in polls in this forum
You cannot attach files in this forum
You cannot download files in this forum