Today is a free download without charge Download

Остров ненужных людей / Сезон: 1 / Серии: 1-24 из 24 (Эдуард Парри) [2012, драма, приключения, HDTVRip]

Reply to topic
 
Author
Message

Omen ®

Longevity: 9 years 1 month

Posts: 181086

Торрент-статистика

Post 08-Mar-2013 21:36

[Quote]

-Остров ненужных людей- -Год выпуска: 2012
Производство: Стар-медиа
Жанр: драма, приключения
Продолжительность: ~ 00:44:00-Режиссер: Эдуард Парри-В ролях:
Дмитрий Ульянов, Эльвира Болгова, Нелли Пшенная, Александр Панкратов-Черный, Юлия Силаева, Александр Робак, Павел Трубинер, Константин Милованов, Галина Звягинцева, Екатерина Стулова-Описание:
Преуспевающий бизнесмен Андрей Каморин несчастлив в семейной жизни. Он бы давно бросил жену Лизу, но на нее записано все имущество. После очередного скандала Андрей предлагает ей поехать с ним в круиз под предлогом, что совместное путешествие поможет им наладить отношения...Группа туристов из тринадцати человек, включая Лизу и Андрея, прилетает в азиатскую страну, но вместо экзотического путешествия их ожидает суровое испытание. Потерпев кораблекрушение, они спасаются на необитаемом острове. Несчастным предстоит выживать. Каждый использует свои навыки, чтобы занять нишу в новом социуме. Находит её и Лиза. Начитавшись детективов, она начинает собственное расследование обстоятельств, при которых их пестрая компания оказалась на острове и заставляет всех вспомнить своё прошлое. Лиза обнаруживает странную закономерность: все они когда-то были связаны между собой. Кто-то узнает родственника, кто-то — коллегу либо конкурента, которому мешал. И только Андрей уклоняется от расспросов жены — в своем плане по избавлению от нее он не учел, что поправки в их дальнейшую судьбу внесет не он, а Высшие силы...
-Исходник: mydimka
Рип: Мосенька-Сэмпл-Качество: HDTVRip
Формат: AVI
Видео кодек: XviD
Аудио кодек: MP3
Видео: 720x400 (16/9), 25 fps, ~1400 Kbps (0.19 bit/pixel)
Аудио: 48 kHz, MPEG Layer 3, 2 ch, ~128.00 kbps avg--
-

MI

ОбщееПолное имя : I:\Остров ненужных людей\Ostrov.nenuzhnyh.lyudey.(01.seriya.iz.24).2011.HDTVRip./*spam*/.aviФормат : AVIФормат/Информация : Audio Video InterleaveРазмер файла : 500 МбайтПродолжительность : 43 м.Общий поток : 1613 Кбит/секПрограмма кодирования : VirtualDubMod 1.5.10.3 | www.virtualdub-fr.org || (build 2550/release)Библиотека кодирования : VirtualDubMod build 2550/release
ВидеоИдентификатор : 0Формат : MPEG-4 VisualПрофиль формата : Advanced [email protected]Параметр BVOP формата : 1Параметр QPel формата : НетПараметр GMC формата : Без точки переходаПараметр матрицы формата : ВыборочнаяИдентификатор кодека : XVIDИдентификатор кодека/Подсказка : XviDПродолжительность : 43 м.Битрейт : 1475 Кбит/секШирина : 720 пикселейВысота : 400 пикселейСоотношение сторон : 16:9Частота кадров : 25,000 кадров/секЦветовое пространство : YUVСубдискретизация насыщенности : 4:2:0Битовая глубина : 8 битТип развёртки : ПрогрессивнаяМетод сжатия : С потерямиБит/(Пиксели*Кадры) : 0.205Размер потока : 457 Мбайт (91%)Библиотека кодирования : XviD 63
АудиоИдентификатор : 1Формат : MPEG AudioВерсия формата : Version 1Профиль формата : Layer 3Режим : Joint stereoРасширение режима : MS StereoИдентификатор кодека : 55Идентификатор кодека/Подсказка : MP3Продолжительность : 43 м.Вид битрейта : ПостоянныйБитрейт : 128 Кбит/секКаналы : 2 каналаЧастота : 48,0 КГцМетод сжатия : С потерямиРазмер потока : 39,7 Мбайт (8%)Выравнивание : Соединение по промежуткамПродолжительность промежутка : 40 мс. (1,00 видеокадр)Время предзагрузки промежутка : 504 мс.
Other forum [Profile] [PM]
Display posts from previous:    
Reply to topic

The time now is: Today 23:31

All times are GMT + 3 Hours



You cannot post new topics in this forum
You cannot reply to topics in this forum
You cannot edit your posts in this forum
You cannot delete your posts in this forum
You cannot vote in polls in this forum
You cannot attach files in this forum
You cannot download files in this forum