Today is a free download without charge Download

Chris Isaak - Beyond the Sun Live [2012, Surf Rock, Roots Rock, BDRip 720p]

Reply to topic
 
Author
Message

Omen ®

Longevity: 8 years 3 months

Posts: 181087

Торрент-статистика

Post 08-Mar-2013 21:36

[Quote]

Chris Isaak - Beyond the Sun Live
Жанр: Surf Rock, Roots Rock
Продолжительность: 0:56:23
Год выпуска: 2012
Описание: This special showcases Chris Isaak's most beloved hits and his personal tribute to the glory days of the legendary Sun Studio in Memphis and the music created by Chris heroes in that famous room. Chris recaptures the heart and soul of the original songs with his own brilliant band of stellar musicians, while showing the heart and soul of his own deeply rooted musical identity. The show was taped before a live audience of music fans on the soundstage of Austin City Limits, the home of the legendary PBS music series.
Доп. информация: Сохранена плавность движения.
Внимание! Формат 720p60 - один из стандартных для аппаратных декодеров, но по "тяжести" для программных - как 1080p.
Качество: BDRip 720p (источник)
Контейнер: MKV
Видео кодек: H.264
Аудио кодек: AC3
Видео: x264, 1280x720, 7876 kbps (0,14 bpp), 59,94 fps
Аудио: AC3, 5.1, 448 kbps, 48 kHz
Главы: подписаны

Скриншоты

Подробные технические данные

Обработка в AviSynth:
AVCSource("Video.dga") # 1080i60
QTGMC("super fast", TR2=1) # качественный деинтерлейс, медленные пресеты для HD не нужны
Spline16Resize(1280,720)
AssumeFPS(60000,1001)
Настройки x264:
--preset slower --tune film --crf 16.5 --bframes 6
--level 4 --vbv-bufsize 25000 --vbv-maxrate 25000 --qpfile "chapters.txt"
--colorprim bt709 --transfer bt709 --colormatrix bt709
Из лога:
avs [info]: 1280x720p 1:1 @ 60000/1001 fps (cfr)
x264 [info]: frame I:753 Avg QP:16.52 size:133579
x264 [info]: frame P:44089 Avg QP:19.05 size: 42828
x264 [info]: frame B:157924 Avg QP:21.56 size: 8495
x264 [info]: consecutive B-frames: 0.6% 0.9% 3.0% 41.2% 23.2% 30.3% 0.8%
x264 [info]: kb/s:7876.02
Звук - копия AC3 5.1 448 kbps.
MediaInfo:
General
Unique ID : 210377770749477957214664603660562624732 (0x9E4548EABFBD9ACFAFD6ACC77EFA70DC)
Complete name : Chris Isaak - Beyond the Sun Live (2012) BDRip 720p.mkv
Format : Matroska
Format version : Version 2
File size : 3.28 GiB
Duration : 56mn 22s
Overall bit rate : 8 328 Kbps
Encoded date : UTC 2013-03-08 17:35:18
Writing application : mkvmerge v6.1.0 ('Old Devil') built on Mar 2 2013 14:32:37
Writing library : libebml v1.3.0 + libmatroska v1.4.0
Video
ID : 2
Format : AVC
Format/Info : Advanced Video Codec
Format profile : [email protected]
Format settings, CABAC : Yes
Format settings, ReFrames : 8 frames
Codec ID : V_MPEG4/ISO/AVC
Duration : 56mn 22s
Bit rate : 7 714 Kbps
Width : 1 280 pixels
Height : 720 pixels
Display aspect ratio : 16:9
Frame rate mode : Constant
Frame rate : 60.000 fps
Original frame rate : 59.940 fps
Color space : YUV
Chroma subsampling : 4:2:0
Bit depth : 8 bits
Scan type : Progressive
Bits/(Pixel*Frame) : 0.140
Stream size : 3.04 GiB (93%)
Writing library : x264 core 130 r2273 b3065e6
Encoding settings : cabac=1 / ref=8 / deblock=1:-1:-1 / analyse=0x3:0x133 / me=umh / subme=9 / psy=1 / psy_rd=1.00:0.15 / mixed_ref=1 / me_range=16 / chroma_me=1 / trellis=2 / 8x8dct=1 / cqm=0 / deadzone=21,11 / fast_pskip=1 / chroma_qp_offset=-3 / threads=3 / lookahead_threads=1 / sliced_threads=0 / nr=0 / decimate=1 / interlaced=0 / bluray_compat=0 / constrained_intra=0 / bframes=6 / b_pyramid=2 / b_adapt=2 / b_bias=0 / direct=3 / weightb=1 / open_gop=0 / weightp=2 / keyint=599 / keyint_min=59 / scenecut=40 / intra_refresh=0 / rc_lookahead=60 / rc=crf / mbtree=1 / crf=16.5 / qcomp=0.60 / qpmin=0 / qpmax=69 / qpstep=4 / vbv_maxrate=25000 / vbv_bufsize=25000 / crf_max=0.0 / nal_hrd=none / ip_ratio=1.40 / aq=1:1.00
Language : English
Default : Yes
Forced : No
Color primaries : BT.709
Transfer characteristics : BT.709
Matrix coefficients : BT.709
Audio
ID : 1
Format : AC-3
Format/Info : Audio Coding 3
Mode extension : CM (complete main)
Format settings, Endianness : Big
Codec ID : A_AC3
Duration : 56mn 22s
Bit rate mode : Constant
Bit rate : 448 Kbps
Channel(s) : 6 channels
Channel positions : Front: L C R, Side: L R, LFE
Sampling rate : 48.0 KHz
Bit depth : 16 bits
Compression mode : Lossy
Stream size : 181 MiB (5%)
Title : AC3 5.1 448 kbps
Language : English
Default : Yes
Forced : No
Menu
00:00:00.000 : en:I Want Your Love
00:03:50.330 : en:Somebody’s Crying
00:06:33.159 : en:You Don’t Cry Like I do
00:10:39.038 : en:Wicked Game
00:15:37.003 : en:Baby Did a Bad Bad Thing
00:23:07.820 : en:Ring of Fire
00:25:54.620 : en:It’s Now or Never
00:29:32.804 : en:Live it Up
00:32:29.748 : en:Miss Pearl
00:34:59.230 : en:Great Balls of Fire
00:37:51.336 : en:Blue Hotel
00:40:33.197 : en:Oh, Pretty Woman
00:43:38.483 : en:Best I Ever Had
00:47:35.252 : en:Big Wide Wonderful World
00:51:47.304 : en:Bonus
Other forum [Profile] [PM]
Display posts from previous:    
Reply to topic

The time now is: Today 21:24

All times are GMT + 3 Hours



You cannot post new topics in this forum
You cannot reply to topics in this forum
You cannot edit your posts in this forum
You cannot delete your posts in this forum
You cannot vote in polls in this forum
You cannot attach files in this forum
You cannot download files in this forum