Today is a free download without charge Download

Условия контракта 2 [1 серии из 4] (2013) SATRip [Обновляемая]

Reply to topic
 
Author
Message

UndegraundMen ®

Longevity: 8 years 9 months

Posts: 25145

Торрент-статистика

Post 08-Mar-2013 21:34

[Quote]

Условия контракта 2 [1 серии из 4] (2013) SATRip [Обновляемая]- Русское название: Условия контракта 2
Выпущено: Россия
Год выпуска: 2013
Жанр: Mелодрама
Перевод: Оригинал (Русский)
Субтитры: Отсутствуют
Режиссер: Игорь Мужжухин
Актеры: Елена Великанова, Кирилл Сафонов, Наталья Рудова, Марина Куделинская, Наталья Данилова, Людмила Титова, Артём Осипов, Игорь Гудеев, Юрий Сазонов
Описание фильма:
Продолжение сериала "Условия контракта" в конце которого Олег бросил свою жену и ушел жить к Маше, которая благополучно родила ребенка...
Что преподнесёт судьба в этом сезоне сериала нашим героям, ведь жизнь наладилась, Маша и Олег любят друг друга и у них есть общее чудо, для которого нужно жить и отдавать себя полностью. Но за любой белой полосой в жизни может наступить черная, мрачная, порой очень долгая полоса, смогут ли они преодолеть все препятствия, которые выпадут у них на пути. На сколько будет прочна нить. связывающая их вместе. Обыденность в семейной жизни многих укрепляет, а многих разводит по разным берегам.
Да и у брошенной жены Олега, где то в глубине души, осталась боль и обида, ведь её предали и бросили саму. Как поведёт себя она в сложившейся ситуации, будет мстить или смерится с судьбой, будет стараться вернуть мужа или останется одна? На все эти вопросы нам даст ответ второй сезон сериала "Условия контракта - 2".
Продолжительность: 1 х ~ 00:46:57 серия
Качество видео: SATRip
Видеокодек: Xvid
Битрейт видео: ~1215 Kbit/s
Размер кадра: 704 x 384
Аудиокодек: MP3, 2.0
Битрейт аудио: 128 Kbit/s
Внимание! Раздача ведётся путём добавления новых серий

Внимание! Раздача ведётся путём добавления новых серий. Описание обновления торрента.

Внимание! Раздача ведётся путём добавления новых серий; при каждом добавлении создётся новый торрент. Чтобы начать докачку новой серии, пользователям необходимо сделать следующее:
(1) остановить скачивание,
(2) удалить старый торрент у себя из клиента (старые серии удалять не надо),
(3) скачать новый торрент и запустить его у себя в клиенте вместо старого, при этом указать клиенту путь в старую папку куда и должно происходить скачивание новых серий.
Ваш клиент при этом должен произвести хеширование (проверку) старой папки (если не производит сам - помогите ему сделать это), и будет докачивать только те серии которых у вас ещё нет. Старые серии при этом не удаляются, а продолжают раздаваться!
Eсли вы уже удалили старые серии, то предотвратить повторную закачку старых серий можно, отжав галочку в соответсвующих местах при запуске нового торрента. По возможности, желательно не удалять старые серии как можно дольше чтобы релизёр не столько продолжал раздавать старые серии, а смог сконцентрироваться на новых.

MediaInfo

Общее
Полное имя : D:\Торренты\ФИЛЬМЫ торента\Условия контракта 2. 2013. SATRip\Условия контракта..2.01.avi
Формат : AVI
Формат/Информация : Audio Video Interleave
Профиль формата : OpenDML
Настройки формата : rec
Размер файла : 454 Мбайт
Продолжительность : 46 м.
Общий поток : 1352 Кбит/сек
Программа кодирования : AVI-Mux GUI 1.17.8.3, Feb 16 201019:42:50
Видео
Идентификатор : 0
Формат : MPEG-4 Visual
Профиль формата : Advanced [email protected]
Параметр BVOP формата : 2
Параметр QPel формата : Нет
Параметр GMC формата : Без точки перехода
Параметр матрицы формата : Default (MPEG)
Идентификатор кодека : XVID
Идентификатор кодека/Подсказка : XviD
Продолжительность : 46 м.
Битрейт : 1215 Кбит/сек
Ширина : 704 пикс.
Высота : 384 пикс.
Соотношение сторон : 16:9
Частота кадров : 25,000 кадр/сек
Цветовое пространство : YUV
Подвыборка цветности : 4:2:0
Битовая глубина : 8 бит
Тип развёртки : Прогрессивная
Метод сжатия : С потерями
Бит/(Пиксели*Кадры) : 0.180
Размер потока : 408 Мбайт (90%)
Библиотека кодирования : XviD 64
Аудио
Идентификатор : 1
Формат : MPEG Audio
Версия формата : Version 1
Профиль формата : Layer 3
Режим : Joint stereo
Расширение режима : MS Stereo
Идентификатор кодека : 55
Идентификатор кодека/Подсказка : MP3
Продолжительность : 46 м.
Вид битрейта : Постоянный
Битрейт : 128 Кбит/сек
Каналы : 2 канала
Частота : 48,0 КГц
Метод сжатия : С потерями
Размер потока : 43,0 Мбайт (9%)
Выравнивание : Соединение по промежуткам
Продолжительность промежутка : 24 мс. (0,60 видеокадр)
Время предзагрузки промежутка : 192 ms
Библиотека кодирования : LAME3.90.3
Скриншоты:
           
Other forum [Profile] [PM]
Display posts from previous:    
Reply to topic

The time now is: Today 05:52

All times are GMT + 3 Hours



You cannot post new topics in this forum
You cannot reply to topics in this forum
You cannot edit your posts in this forum
You cannot delete your posts in this forum
You cannot vote in polls in this forum
You cannot attach files in this forum
You cannot download files in this forum