Today is a free download without charge Download

Преступление и наказание (8 серий из 8) (2007) DVDRip

Reply to topic
 
Author
Message

UndegraundMen ®

Longevity: 8 years 9 months

Posts: 25145

Торрент-статистика

Post 08-Mar-2013 17:34

[Quote]

Преступление и наказание (8 серий из 8) (2007) DVDRip
«Психологический отчет одного преступления»
- Русское название: Преступление и наказание
Год выпуска: 2007
Производство: Россия, AS/DS Film Company
Жанр: Драма
Режиссер: Дмитрий Светозаров
Сценарий: Михаил Смоляницкий, Дмитрий Светозаров, Фёдор Достоевский
Актеры: Владимир Кошевой, Андрей Панин, Александр Балуев, Елена Яковлева, Юрий Кузнецов, Зоя Буряк, Светлана Смирнова, Андрей Зибров, Полина Филоненко, Сергей Бехтерев, Катерина Васильева, Сергей Перегудов, Сергей Андрейчук, Анатолий Рудаков, Евгений Меркурьев, Вера Карпова, Светлана Обидина, Валентин Букин, Наталья Кутасова, Алексей Исполатов, Дмитрий Исполатов, Николай Исполатов, Денис Кириллов, Татьяна Полонская, Юрис Лауциньш, Леонид Алимов, Анна Дюкова, Игорь Климов, Алексей Васильев, Сергей Занин, Дмитрий Макеев, Андрей Левин, Дарья Циберкина, Виталий Куклин, Павел Денисов, Дмитрий Цветков, Павел Чинарев, Анастасия Каптуренко, Валерий Ли, Евгений Сиротин
Описание фильма:
Студент Родион Раскольников убивает топором старуху-процентщицу и её сестру. Ему нужны деньги, ведь он заложил часы отца. Содеянное — ужасает Родиона. Раскольников в смятении — он не может найти себе места. Его сестра Дуня собирается замуж без любви, теория о «необыкновенном человеке» разваливается на глазах, а сам Родион всё глубже погружается в пучину страхов и кошмаров. Расследующие убийство процентщицы всё ближе и ближе подбираются к Раскольникову. Судьба сводит его с Сонечкой Мармеладовой. Девушке, оставшейся без родителей, приходится работать проституткой, чтобы выжить. Именно она убеждает Родиона признаться в убийстве…- -Продолжительность: 8 серий x ~ 00:50:00
Качество видео: DVDRip
Видеокодек: XviD
Битрейт видео: 1255 Кбит/сек
Размер кадра: 704x384
Аудио : Русский, AC3, 2 ch, 192 Кбит/с

MediaInfo

Код:
Общее
Полное имя                               : E:\Раздачи\Видео\Преступление и наказание (8 серий из 8) (2007) DVDRip\Prestuplenie.i.Nakazanie.(1.seria.iz.8).2007.XviD.DVDRip.avi
Формат                                   : AVI
Формат/Информация                        : Audio Video Interleave
Размер файла                             : 523 Мбайт
Продолжительность                        : 50 м.
Общий поток                              : 1453 Кбит/сек
Программа кодирования                    : VirtualDubMod 1.5.4.1 (build 2178/release)
Библиотека кодирования                   : VirtualDub build 28312/release
Видео
Идентификатор                            : 0
Формат                                   : MPEG-4 Visual
Профиль формата                          : Advanced [email protected]
Параметр BVOP формата                    : 1
Параметр QPel формата                    : Нет
Параметр GMC формата                     : Без точки перехода
Параметр матрицы формата                 : Выборочная
Идентификатор кодека                     : XVID
Идентификатор кодека/Подсказка           : XviD
Продолжительность                        : 50 м.
Битрейт                                  : 1253 Кбит/сек
Ширина                                   : 704 пикселя
Высота                                   : 384 пикселя
Соотношение сторон                       : 1,85:1
Частота кадров                           : 25,000 кадров/сек
Цветовое пространство                    : YUV
Субдискретизация насыщенности            : 4:2:0
Битовая глубина                          : 8 бит
Тип развёртки                            : Прогрессивная
Метод сжатия                             : С потерями
Бит/(Пиксели*Кадры)                      : 0.185
Размер потока                            : 451 Мбайт (86%)
Библиотека кодирования                   : XviD 1.2.0.dev47 (UTC 2006-11-01)
Аудио
Идентификатор                            : 1
Формат                                   : AC-3
Формат/Информация                        : Audio Coding 3
Расширение режима                        : CM (complete main)
Параметр Endianness формата              : Big
Идентификатор кодека                     : 2000
Продолжительность                        : 50 м.
Вид битрейта                             : Постоянный
Битрейт                                  : 192 Кбит/сек
Каналы                                   : 2 канала
Расположение каналов                     : Front: L R
Частота                                  : 48,0 КГц
Битовая глубина                          : 16 бит
Метод сжатия                             : С потерями
Размер потока                            : 69,2 Мбайт (13%)
Выравнивание                             : Разделение по промежуткам
Продолжительность промежутка             : 64  мс. (1,60 видеокадра)
Время предзагрузки промежутка            : 64  мс.
Скриншоты:
         
         -Время раздачи: 9.00 - 23.00 (по мере возможности...)
Other forum [Profile] [PM]
Display posts from previous:    
Reply to topic

The time now is: Today 23:14

All times are GMT + 3 Hours



You cannot post new topics in this forum
You cannot reply to topics in this forum
You cannot edit your posts in this forum
You cannot delete your posts in this forum
You cannot vote in polls in this forum
You cannot attach files in this forum
You cannot download files in this forum