Today is a free download without charge Download

Молодые сердца / Love and Honor (Дэнни Муни / Danny Mooney) [2012, США, Великобритания, драма, мелодрама, BDRip 720p] Dub + MVO (Ukr) + Sub Rus + Original Eng

Reply to topic
 
Author
Message

Omen ®

Longevity: 8 years 5 months

Posts: 181087

Торрент-статистика

Post 08-Mar-2013 17:33

[Quote]

Молодые сердца / Love and Honor Страна: США
Жанр: драма, мелодрама
Год выпуска: 2012
Продолжительность: 01:35:54
Перевод: Дублированный (R5)
Cубтитры: английские

Режиссер: Дэнни Муни / Danny Mooney
В ролях: Лайам Хемсворт, Тереза Палмер, Эйми Тигарден, Крис Лоуэлл, Рики Уэйн, Макс Адлер, Уайатт Расселл, Остин Стоуэлл, Лоурен Мэй Шафер, Гордон Майклс, Чейз Мэйсер, Синди Чу, Джулиан Гант, Роджер Каллард, Аполло Бакала, Николас Ритц, Эндрю Фрейдж, Майкл Эллисон, Патрик Поточик, Шарлотта Уббен, Крис Ньюман, Клер Ричардс, Роберт Форте Шеннон III, Хезер Йеребек, Кристин Белл, Рендал Брюс, Мэдисон Конрадис, Сабрина Дунган, Элиз Эдсон, Тиффани Элиз Эдвардс, Джейсон Вазируд-дин, Тим Дженкинс, ДаЖуан Риппи, Стефани Стефани, Моррис Салливан, Мелоди Теодоро-Кертис

Описание:Молодой парень Дэлтон решает тайком сбежать на несколько дней в самоволку, чтобы увидеться с любимой девушкой. К нему присоединяется его друг Микки. В компании беспечных молодых студентов Микки знакомится с соблазнительной, красивой и свободолюбивой Кэндис. Ради нескольких дней с ней Микки готов поставить на карту свою военную карьеру и даже жизнь. Герои никогда не смогут забыть это солнечное, страстное и безумное лето, когда пробуждались молодые сердца…

Качество видео: BDRip (720p)
Формат видео: MKV
Видео: MPEG-4 AVC, 1280x546, 23.976 fps, 3721 kbps
Аудио 1: Русский (AC3, 48 kHz, 6 ch, 384 kbps)
Аудио 2: Украинский (AC3, 48 kHz, 6 ch, 384 kbps)
Аудио 3: Английский (DTS, 48 kHz, 6 ch, 1510 kbps)
Формат субтитров: softsub (SRT)

MediaInfo

Код:
Общее
Полное имя                               : E:\Video\Love.and.Honor.2013.D.BDRip.720p.mkv
Формат                                   : Matroska
Версия формата                           : Version 2
Размер файла                             : 4,02 Гбайт
Продолжительность                        : 1 ч. 35 м.
Общий поток                              : 5999 Кбит/сек
Дата кодирования                         : UTC 2013-03-08 10:30:20
Программа кодирования                    : mkvmerge v6.1.0 ('Old Devil') built on Mar  2 2013 14:32:37
Библиотека кодирования                   : libebml v1.3.0 + libmatroska v1.4.0
Видео
Идентификатор                            : 1
Формат                                   : AVC
Формат/Информация                        : Advanced Video Codec
Профиль формата                          : H[email protected]
Параметр CABAC формата                   : Да
Параметр ReFrames формата                : 11 кадров
Идентификатор кодека                     : V_MPEG4/ISO/AVC
Продолжительность                        : 1 ч. 35 м.
Битрейт                                  : 3721 Кбит/сек
Ширина                                   : 1280 пикселей
Высота                                   : 546 пикселей
Соотношение сторон                       : 2,35:1
Режим частоты кадров                     : Постоянный
Частота кадров                           : 23,976 кадра/сек
Цветовое пространство                    : YUV
Субдискретизация насыщенности            : 4:2:0
Битовая глубина                          : 8 бит
Тип развёртки                            : Прогрессивная
Бит/(Пиксели*Кадры)                      : 0.222
Размер потока                            : 2,41 Гбайт (60%)
Библиотека кодирования                   : x264 core 128 r2216 198a7ea
Настройки программы                      : cabac=1 / ref=11 / deblock=1:-3:-3 / analyse=0x3:0x113 / me=umh / subme=10 / psy=1 / psy_rd=1.10:0.15 / mixed_ref=1 / me_range=32 / chroma_me=1 / trellis=2 / 8x8dct=1 / cqm=0 / deadzone=21,11 / fast_pskip=0 / chroma_qp_offset=-2 / threads=12 / lookahead_threads=2 / sliced_threads=0 / nr=0 / decimate=1 / interlaced=0 / bluray_compat=0 / constrained_intra=0 / bframes=6 / b_pyramid=2 / b_adapt=2 / b_bias=0 / direct=3 / weightb=1 / open_gop=0 / weightp=2 / keyint=250 / keyint_min=23 / scenecut=40 / intra_refresh=0 / rc_lookahead=40 / rc=2pass / mbtree=0 / bitrate=3721 / ratetol=1.0 / qcomp=0.60 / qpmin=0 / qpmax=69 / qpstep=4 / cplxblur=20.0 / qblur=0.5 / vbv_maxrate=40000 / vbv_bufsize=30000 / nal_hrd=none / ip_ratio=1.40 / pb_ratio=1.30 / aq=1:0.80
Язык                                     : English
Default                                  : Да
Forced                                   : Нет
Аудио #1
Идентификатор                            : 2
Формат                                   : AC-3
Формат/Информация                        : Audio Coding 3
Расширение режима                        : CM (complete main)
Параметр Endianness формата              : Big
Идентификатор кодека                     : A_AC3
Продолжительность                        : 1 ч. 35 м.
Вид битрейта                             : Постоянный
Битрейт                                  : 384 Кбит/сек
Каналы                                   : 6 каналов
Расположение каналов                     : Front: L C R, Side: L R, LFE
Частота                                  : 48,0 КГц
Битовая глубина                          : 16 бит
Метод сжатия                             : С потерями
Размер потока                            : 263 Мбайт (6%)
Язык                                     : Russian
Default                                  : Да
Forced                                   : Нет
Аудио #2
Идентификатор                            : 3
Формат                                   : AC-3
Формат/Информация                        : Audio Coding 3
Расширение режима                        : CM (complete main)
Параметр Endianness формата              : Big
Идентификатор кодека                     : A_AC3
Продолжительность                        : 1 ч. 35 м.
Вид битрейта                             : Постоянный
Битрейт                                  : 384 Кбит/сек
Каналы                                   : 6 каналов
Расположение каналов                     : Front: L C R, Side: L R, LFE
Частота                                  : 48,0 КГц
Битовая глубина                          : 16 бит
Метод сжатия                             : С потерями
Размер потока                            : 263 Мбайт (6%)
Язык                                     : Ukrainian
Default                                  : Нет
Forced                                   : Нет
Аудио #3
Идентификатор                            : 4
Формат                                   : DTS
Формат/Информация                        : Digital Theater Systems
Режим                                    : 16
Параметр Endianness формата              : Big
Идентификатор кодека                     : A_DTS
Продолжительность                        : 1 ч. 35 м.
Вид битрейта                             : Постоянный
Битрейт                                  : 1509 Кбит/сек
Каналы                                   : 6 каналов
Расположение каналов                     : Front: L C R, Side: L R, LFE
Частота                                  : 48,0 КГц
Битовая глубина                          : 24 бит
Метод сжатия                             : С потерями
Размер потока                            : 1,01 Гбайт (25%)
Язык                                     : English
Default                                  : Нет
Forced                                   : Нет
Текст
Идентификатор                            : 5
Формат                                   : UTF-8
Идентификатор кодека                     : S_TEXT/UTF8
Идентификатор кодека/Информация          : UTF-8 Plain Text
Язык                                     : Russian
Default                                  : Нет
Forced                                   : Нет
x264 [info]: frame I:1216 Avg QP:13.25 size:120406
x264 [info]: frame P:33949 Avg QP:15.52 size: 37917
x264 [info]: frame B:102807 Avg QP:17.82 size: 12078

Скриншоты


Other forum [Profile] [PM]
Similar theme
Forum Topic Author Torrent Replies Last Post
./templates/default/images/folder_dl.gif Обучающее видео Бизнес Молодость | Миллион за сто [2015, Бизнес, RUS] (Видеоурок) Omen
0 | 1

0 | 1646

4

2016-08-14 01:01
Omen Latest
Display posts from previous:    
Reply to topic

The time now is: Today 20:30

All times are GMT + 3 Hours



You cannot post new topics in this forum
You cannot reply to topics in this forum
You cannot edit your posts in this forum
You cannot delete your posts in this forum
You cannot vote in polls in this forum
You cannot attach files in this forum
You cannot download files in this forum